×

¿Problemas para descargar con Mozilla, EDGE? Deshabilita la opción "Abrir vinculos en una pestaña nueva" tal como lo muestra ésta imagen.

Hero Ying xiong (2002) REMUX 1080p Latino – CMHDD

142 vistas

Información de Hero Ying xiong (2002) REMUX 1080p Latino – CMHDD

Datos de la película

  • Calidad: Full 1080p
  • Audio: Español Latino AC3 5.1 BLURAY - Ingles DTS 5.1 BLURAY
  • Subtitulos: Español Latino PGS
  • Resolución: 1920x1080p
  • Formato: MKV
  • Codec: H.264
  • Encoder: Dracarys
  • Mediainfo: Clic para Mostrar Datos Ver
  • Format                      : Matroska
    Format version              : Version 4
    File size                   : 29.0 GiB
    Duration                    : 1 h 39 min
    Overall bit rate mode       : Variable
    Overall bit rate            : 41.9 Mb/s
    Movie name                  : Hero Ying xiong (2002)  REMUX 1080p Latino - CMHDD
    Encoded date                : UTC 2021-09-12 02:45:22
    Writing application         : mkvmerge v17.0.0 ('Be Ur Friend') 64-bit
    Writing library             : libebml v1.3.5 + libmatroska v1.4.8

    Video
    ID                          : 1
    Format                      : AVC
    Format/Info                 : Advanced Video Codec
    Format profile              : High@L4.1
    Format settings             : CABAC / 4 Ref Frames
    Format settings, CABAC      : Yes
    Format settings, Reference  : 4 frames
    Codec ID                    : V_MPEG4/ISO/AVC
    Duration                    : 1 h 39 min
    Bit rate mode               : Variable
    Bit rate                    : 36.4 Mb/s
    Maximum bit rate            : 38.5 Mb/s
    Width                       : 1 920 pixels
    Height                      : 1 080 pixels
    Display aspect ratio        : 16:9
    Frame rate mode             : Constant
    Frame rate                  : 23.976 (24000/1001) FPS
    Color space                 : YUV
    Chroma subsampling          : 4:2:0
    Bit depth                   : 8 bits
    Scan type                   : Progressive
    Bits/(Pixel*Frame)          : 0.732
    Stream size                 : 25.2 GiB (87%)
    Default                     : Yes
    Forced                      : No
    Color range                 : Limited
    Color primaries             : BT.709
    Transfer characteristics    : BT.709
    Matrix coefficients         : BT.709

    Audio #1
    ID                          : 2
    Format                      : AC-3
    Format/Info                 : Audio Coding 3
    Commercial name             : Dolby Digital
    Codec ID                    : A_AC3
    Duration                    : 1 h 39 min
    Bit rate mode               : Constant
    Bit rate                    : 640 kb/s
    Channel(s)                  : 6 channels
    Channel layout              : L R C LFE Ls Rs
    Sampling rate               : 48.0 kHz
    Frame rate                  : 31.250 FPS (1536 SPF)
    Compression mode            : Lossy
    Stream size                 : 454 MiB (2%)
    Language                    : Chinese
    Service kind                : Complete Main
    Default                     : No
    Forced                      : No

    Audio #2
    ID                          : 3
    Format                      : DTS XLL
    Format/Info                 : Digital Theater Systems
    Commercial name             : DTS-HD Master Audio
    Codec ID                    : A_DTS
    Duration                    : 1 h 39 min
    Bit rate mode               : Variable
    Bit rate                    : 4 200 kb/s
    Channel(s)                  : 6 channels
    Channel layout              : C L R Ls Rs LFE
    Sampling rate               : 48.0 kHz
    Frame rate                  : 93.750 FPS (512 SPF)
    Bit depth                   : 24 bits
    Compression mode            : Lossless
    Stream size                 : 2.91 GiB (10%)
    Language                    : English
    Default                     : No
    Forced                      : No

    Audio #3
    ID                          : 4
    Format                      : AC-3
    Format/Info                 : Audio Coding 3
    Commercial name             : Dolby Digital
    Codec ID                    : A_AC3
    Duration                    : 1 h 39 min
    Bit rate mode               : Constant
    Bit rate                    : 640 kb/s
    Channel(s)                  : 6 channels
    Channel layout              : L R C LFE Ls Rs
    Sampling rate               : 48.0 kHz
    Frame rate                  : 31.250 FPS (1536 SPF)
    Compression mode            : Lossy
    Stream size                 : 454 MiB (2%)
    Language                    : Spanish
    Service kind                : Complete Main
    Default                     : Yes
    Forced                      : No

    Text #1
    ID                          : 5
    Format                      : PGS
    Muxing mode                 : zlib
    Codec ID                    : S_HDMV/PGS
    Codec ID/Info               : Picture based subtitle format used on BDs/HD-DVDs
    Duration                    : 1 h 32 min
    Bit rate                    : 20.4 kb/s
    Count of elements           : 1096
    Stream size                 : 13.6 MiB (0%)
    Language                    : Spanish
    Default                     : No
    Forced                      : No

    Text #2
    ID                          : 6
    Format                      : PGS
    Muxing mode                 : zlib
    Codec ID                    : S_HDMV/PGS
    Codec ID/Info               : Picture based subtitle format used on BDs/HD-DVDs
    Duration                    : 42 ms
    Bit rate                    : 13.3 kb/s
    Count of elements           : 2
    Stream size                 : 70.0 Bytes (0%)
    Language                    : Spanish
    Default                     : No
    Forced                      : No

    Menu
    00:00:00.000                : en:Chapter 1
    00:07:40.835                : en:Chapter 2
    00:15:31.221                : en:Chapter 3
    00:23:21.483                : en:Chapter 4
    00:28:39.926                : en:Chapter 5
    00:34:48.669                : en:Chapter 6
    00:40:00.606                : en:Chapter 7
    00:48:02.671                : en:Chapter 8
    00:57:14.514                : en:Chapter 9
    01:06:33.864                : en:Chapter 10
    01:15:46.041                : en:Chapter 11
    01:23:30.380                : en:Chapter 12
    01:29:18.269                : en:Chapter 13
    01:33:38.654                : en:Chapter 14

  • Peso: 29.0 GiB

Sinopsis

Hace dos mil años, China estaba dividida en siete reinos. Cada uno de ellos combatía contra los otros para obtener la supremacía, mientras que la población soportaba el sufrimiento y la muerte. De estos siete reinos, Qin era el más violento. El rey de Qin estaba obsesionado con la conquista de China y el deseo de convertirse en su primer Emperador. Los demás reinos enviaron a sus más temibles asesinos para eliminarlo. Solo el nombre de tres de estos asesinos era suficiente para sembrar el terror: Espada Rota, Nieve y Cielo. El rey de Qin prometió poder y fortuna para aquel que lograra matar a estos tres asesinos. Durante diez años, nadie lo consiguió. Cuando el misterioso Sin Nombre se presenta en palacio, portando las armas de los asesinos abatidos, el rey se muestra ansioso por escuchar su historia. Sentado a diez pasos del monarca, Sin Nombre comienza su relato.

Ficha técnica

Video trailer de la película

Enlaces de descarga

Rip de Bluray

Descargar Hero Ying xiong (2002) REMUX 1080p Latino – CMHDD


Aportes de DPeliculasHDmega la pass es:dpeliculashdmega.org Aportes de CinemaniaHD la pass es:cinemaniahdd.com
Guardado en : Acción , Aventura , Drama , Historia

Películas relacionadas

descargar Hero Ying xiong (2002) REMUX 1080p Latino – CMHDD Full 1080p 1080p gratis, Hero Ying xiong (2002) REMUX 1080p Latino – CMHDD Full 1080p mega 1 link, Hero Ying xiong (2002) REMUX 1080p Latino – CMHDD Full 1080p pelicula completa, descargar Hero Ying xiong (2002) REMUX 1080p Latino – CMHDD Full 1080p gratis en mega.

Hero Ying xiong (2002) REMUX 1080p Latino – CMHDD pelicula full hd, Hero Ying xiong (2002) REMUX 1080p Latino – CMHDD mega latino, Hero Ying xiong (2002) REMUX 1080p Latino – CMHDD 4k latino, Hero Ying xiong (2002) REMUX 1080p Latino – CMHDD pelicula completa, Hero Ying xiong (2002) REMUX 1080p Latino – CMHDD descargar gratis, descargar Hero Ying xiong (2002) REMUX 1080p Latino – CMHDD pelicula latino, Hero Ying xiong (2002) REMUX 1080p Latino – CMHDD 1 link mega, Hero Ying xiong (2002) REMUX 1080p Latino – CMHDD 1 link google drive, Hero Ying xiong (2002) REMUX 1080p Latino – CMHDD hd 1080p latino.