Hero Mask (2018) Temporada 1 NF 1080p Español Latino

1.192 vistas
1 estrella2 estrellas3 estrellas4 estrellas5 estrellas (1 votos, promedio: 1,00 de 5)
Cargando…

Información de Hero Mask (2018) Temporada 1 NF 1080p Español Latino

Datos de la película

  • Calidad: WEBDL
  • Audio: Español Latino AC3 5.1 Netflix - Japones AC3 5.1 Netflix
  • Subtitulos: Español Latino SRT - Ingles SRT
  • Resolución: 1920x1080
  • Formato: MKV
  • Codec: H.264
  • Encoder: cinemaniahd
  • Mediainfo: Clic para Mostrar Datos Ver
  • HERO MASK S01E01 (2018) NF 1080p Español Latino.mkv
    Format                      : Matroska
    Format version              : Version 4
    File size                   : 717 MiB
    Duration                    : 24 min 49 s
    Overall bit rate mode       : Variable
    Overall bit rate            : 4 034 kb/s
    Encoded date                : UTC 2019-01-13 05:01:00
    Writing application         : mkvmerge v30.1.0 ('Forever And More') 64-bit
    Writing library             : libebml v1.3.6 + libmatroska v1.4.9

    Video
    ID                          : 1
    Format                      : AVC
    Format/Info                 : Advanced Video Codec
    Format profile              : [email protected]
    Format settings             : CABAC / 3 Ref Frames
    Format settings, CABAC      : Yes
    Format settings, ReFrames   : 3 frames
    Codec ID                    : V_MPEG4/ISO/AVC
    Duration                    : 24 min 49 s
    Bit rate mode               : Variable
    Bit rate                    : 3 320 kb/s
    Maximum bit rate            : 4 980 kb/s
    Width                       : 1 920 pixels
    Height                      : 1 080 pixels
    Display aspect ratio        : 16:9
    Frame rate mode             : Constant
    Frame rate                  : 23.976 (24000/1001) FPS
    Color space                 : YUV
    Chroma subsampling          : 4:2:0
    Bit depth                   : 8 bits
    Scan type                   : Progressive
    Bits/(Pixel*Frame)          : 0.067
    Stream size                 : 580 MiB (81%)
    Writing library             : x264 core 148 r2715 7e75228
    Encoding settings           : cabac=1 / ref=3 / deblock=1:0:0 / analyse=0x1:0x111 / me=umh / subme=10 / psy=1 / psy_rd=1.00:0.00 / mixed_ref=1 / me_range=24 / chroma_me=1 / trellis=2 / 8x8dct=0 / cqm=0 / deadzone=21,11 / fast_pskip=1 / chroma_qp_offset=-2 / threads=8 / lookahead_threads=1 / sliced_threads=0 / nr=0 / decimate=1 / interlaced=0 / bluray_compat=0 / stitchable=1 / constrained_intra=0 / bframes=2 / b_pyramid=0 / b_adapt=2 / b_bias=0 / direct=3 / weightb=1 / open_gop=0 / weightp=2 / keyint=48 / keyint_min=25 / scenecut=0 / intra_refresh=0 / rc_lookahead=48 / rc=2pass / mbtree=1 / bitrate=3320 / ratetol=1.0 / qcomp=0.50 / qpmin=6 / qpmax=51 / qpstep=4 / cplxblur=20.0 / qblur=0.5 / vbv_maxrate=4980 / vbv_bufsize=6640 / nal_hrd=vbr / filler=0 / ip_ratio=1.40 / aq=1:1.00
    Default                     : Yes
    Forced                      : No

    Audio #1
    ID                          : 2
    Format                      : AC-3
    Format/Info                 : Audio Coding 3
    Commercial name             : Dolby Digital
    Codec ID                    : A_AC3
    Duration                    : 24 min 49 s
    Bit rate mode               : Constant
    Bit rate                    : 384 kb/s
    Channel(s)                  : 6 channels
    Channel layout              : L R C LFE Ls Rs
    Sampling rate               : 48.0 kHz
    Frame rate                  : 31.250 FPS (1536 SPF)
    Bit depth                   : 16 bits
    Compression mode            : Lossy
    Stream size                 : 68.2 MiB (10%)
    Language                    : Spanish
    Service kind                : Complete Main
    Default                     : Yes
    Forced                      : No

    Audio #2
    ID                          : 3
    Format                      : AC-3
    Format/Info                 : Audio Coding 3
    Commercial name             : Dolby Digital
    Codec ID                    : A_AC3
    Duration                    : 24 min 49 s
    Bit rate mode               : Constant
    Bit rate                    : 384 kb/s
    Channel(s)                  : 6 channels
    Channel layout              : L R C LFE Ls Rs
    Sampling rate               : 48.0 kHz
    Frame rate                  : 31.250 FPS (1536 SPF)
    Bit depth                   : 16 bits
    Compression mode            : Lossy
    Stream size                 : 68.2 MiB (10%)
    Language                    : Japanese
    Service kind                : Complete Main
    Default                     : No
    Forced                      : No

    Text #1
    ID                          : 4
    Format                      : UTF-8
    Codec ID                    : S_TEXT/UTF8
    Codec ID/Info               : UTF-8 Plain Text
    Duration                    : 22 min 0 s
    Bit rate                    : 37 b/s
    Count of elements           : 190
    Stream size                 : 6.08 KiB (0%)
    Title                       : English
    Language                    : English
    Default                     : Yes
    Forced                      : Yes

    Text #2
    ID                          : 5
    Format                      : UTF-8
    Codec ID                    : S_TEXT/UTF8
    Codec ID/Info               : UTF-8 Plain Text
    Duration                    : 24 min 14 s
    Bit rate                    : 37 b/s
    Count of elements           : 197
    Stream size                 : 6.70 KiB (0%)
    Title                       : Spanish
    Language                    : Spanish
    Default                     : No
    Forced                      : No

  • Peso: 720MB por Capitulo

Sinopsis

Hero Mask es un anime que se centra en James Blood y en una serie de crímenes espantosos. Todos estos crímenes tienen relación con una extraña máscara. El joven detective empieza a investigar para intentar averiguar que es lo que está sucediendo alrededor de estos misteriosos incidentes.

Este thriller está escrito y dirigido por Hiroyasu Aoki (No Game No Life). Takahisa Katagiri es el encargado de diseñar a los personajes. Es una producción Studio Pierrot para Netflix.

Ficha técnica

Video trailer de la película

Enlaces de descarga

Rip de Bluray

Descargar Hero Mask (2018) Temporada 1 NF 1080p Español Latino




Aportes de DPeliculasHDmega la pass es:dpeliculashdmega.org Aportes de CinemaniaHD la pass es:cinemaniahdd.com

Películas relacionadas

  • La nave del terror (1997) Full 1080p Latino

    1997
    La nave del terror (1997) Full 1080p Latino

    5.0 1h 36m 1997

    En el año 2047 una nave de rescate, la "Lewis & Clark", es enviada a investigar la misteriosa reaparición...

    Director: Paul W.S. Anderson

    Género: Ciencia ficción

    Actores: Teresa May

  • The Flash (2018) Temporada 05 Web-DL 1080p Latino

    2014
    The Flash (2018) Temporada 05 Web-DL 1080p Latino

    3.3 0h 44m 2014

    The Flash (2018) Temporada 5 AMZN 1080p Latino, Mega, Google Drive. La combinación de El Pensador, que...

    Director: Geoff Johns

    Género: Drama

    Actores: Tom Cavanagh

  • Arrow (2018) Temporada 07 Web-DL 1080p Latino

    2012
    Arrow (2018) Temporada 07 Web-DL 1080p Latino

    3.3 0h 42m 2012

    Descargar Arrow Temporada 07 Web-DL 1080p Latino; Mega, Google Drive. No ha habido escasez de llamadas...

    Director: Marc Guggenheim

    Género: Action & Adventure

    Actores: Stephen Amell

  • Supergirl (2018) Temporada 04 Web-DL 1080p Latino

    2015
    Supergirl (2018) Temporada 04 Web-DL 1080p Latino

    4.4 0h 42m 2015

    Descargar Supergirl (2018) Temporada 04 Web-DL 1080p Latino; Mega, Google Drive. Las aventuras de la...

    Director: Greg Berlanti

    Género: Acción

    Actores: Samuel Witwer

Comentarios 0