×

¿Problemas para descargar con Mozilla, EDGE? Deshabilita la opción "Abrir vinculos en una pestaña nueva" tal como lo muestra ésta imagen.

Heridas abiertas (2018) (Miniserie de TV) REMUX 1080p Latino – CMHDD

218 vistas

Información de Heridas abiertas (2018) (Miniserie de TV) REMUX 1080p Latino – CMHDD

Datos de la película

  • Calidad: Full 1080p
  • Audio: Se especifica abajo de la Sinopsis
  • Subtitulos: Español Latino PGS
  • Resolución: 1920x1080p
  • Formato: MKV
  • Codec: H.264
  • Encoder: Dracarys
  • Mediainfo: Clic para Mostrar Datos Ver
  • Format                      : Matroska
    Format version              : Version 4
    File size                   : 10.9 GiB
    Duration                    : 1 h 1 min
    Overall bit rate mode       : Variable
    Overall bit rate            : 25.3 Mb/s
    Movie name                  : Heridas abiertas (2018) (Miniserie de TV) [E01] REMUX 1080p Latino - CMHDD
    Encoded date                : UTC 2021-01-18 00:18:11
    Writing application         : mkvmerge v51.0.0 ('I Wish') 64-bit
    Writing library             : libebml v1.4.0 + libmatroska v1.6.2

    Video
    ID                          : 1
    Format                      : AVC
    Format/Info                 : Advanced Video Codec
    Format profile              : High@L4.1
    Format settings             : CABAC / 4 Ref Frames
    Format settings, CABAC      : Yes
    Format settings, Reference  : 4 frames
    Codec ID                    : V_MPEG4/ISO/AVC
    Duration                    : 1 h 1 min
    Bit rate mode               : Variable
    Bit rate                    : 20.8 Mb/s
    Maximum bit rate            : 35.0 Mb/s
    Width                       : 1 920 pixels
    Height                      : 1 080 pixels
    Display aspect ratio        : 16:9
    Frame rate mode             : Constant
    Frame rate                  : 23.976 (24000/1001) FPS
    Color space                 : YUV
    Chroma subsampling          : 4:2:0
    Bit depth                   : 8 bits
    Scan type                   : Progressive
    Bits/(Pixel*Frame)          : 0.419
    Stream size                 : 8.95 GiB (82%)
    Default                     : Yes
    Forced                      : No

    Audio #1
    ID                          : 2
    Format                      : DTS XLL
    Format/Info                 : Digital Theater Systems
    Commercial name             : DTS-HD Master Audio
    Codec ID                    : A_DTS
    Duration                    : 1 h 1 min
    Bit rate mode               : Variable
    Bit rate                    : 3 008 kb/s
    Channel(s)                  : 6 channels
    Channel layout              : C L R Ls Rs LFE
    Sampling rate               : 48.0 kHz
    Frame rate                  : 93.750 FPS (512 SPF)
    Bit depth                   : 24 bits
    Compression mode            : Lossless
    Stream size                 : 1.29 GiB (12%)
    Language                    : English
    Default                     : No
    Forced                      : No

    Audio #2
    ID                          : 3
    Format                      : DTS
    Format/Info                 : Digital Theater Systems
    Codec ID                    : A_DTS
    Duration                    : 1 h 1 min
    Bit rate mode               : Constant
    Bit rate                    : 1 509 kb/s
    Channel(s)                  : 2 channels
    Channel layout              : Lt Rt
    Sampling rate               : 48.0 kHz
    Frame rate                  : 93.750 FPS (512 SPF)
    Bit depth                   : 24 bits
    Compression mode            : Lossy
    Stream size                 : 665 MiB (6%)
    Language                    : Spanish
    Default                     : Yes
    Forced                      : No

    Text
    ID                          : 4
    Format                      : PGS
    Muxing mode                 : zlib
    Codec ID                    : S_HDMV/PGS
    Codec ID/Info               : Picture based subtitle format used on BDs/HD-DVDs
    Duration                    : 1 h 1 min
    Bit rate                    : 26.1 kb/s
    Count of elements           : 1358
    Stream size                 : 11.5 MiB (0%)
    Language                    : Spanish
    Default                     : Yes
    Forced                      : No

  • Peso: 76.2 GiB Total

Sinopsis

Después de pasar un breve tiempo en un hospital psiquiátrico, la reportera Camille Preaker debe regresar a su pequeña ciudad natal para cubrir los asesinatos violentos de dos chicas preadolescentes. Durante años, Camille apenas ha hablado con Adora Crellin, su madre neurótica e hipocondríaca y con Amma, su hermanastra, una joven a quien apenas conoce. Instalada en su antiguo dormitorio en la mansión victoriana de su familia, Camille pronto se encuentra identificándose con las jóvenes víctimas. Atrapada por sus propios demonios, debe de desentrañar el rompecabezas psicológico de su propio pasado si quiere obtener la historia y encontrar al culpable de los crímenes.

Latino: DTS 2.0 [1,509 kb/s] – Ingles: DTS-HD MA 5.1 [3,008 kb/s]

Ficha técnica

Video trailer de la película

Enlaces de descarga

Rip de Bluray

Descargar Heridas abiertas (2018) (Miniserie de TV) REMUX 1080p Latino – CMHDD


Aportes de DPeliculasHDmega la pass es:dpeliculashdmega.org Aportes de CinemaniaHD la pass es:cinemaniahdd.com
Guardado en : Crimen , Drama , Misterio

Películas relacionadas

  • Blonde (2022) NF WEB-DL 1080p Latino

    Blonde (2022) NF WEB-DL 1080p Latino

    2022
    Blonde (2022) NF WEB-DL 1080p Latino

    2h 46m 2022

    Descargar Blonde (2022) NF WEB-DL 1080p Latino. Basada en el bestseller de la cinco veces finalista al...

    Director: Kristin Bree Calabrese

    Género: Drama

    Actores: Xavier Samuel

  • Borrego: Sal Del Camino (2022) HD 1080p Latino

    Borrego: Sal Del Camino (2022) HD 1080p Latino

    2022
    Borrego: Sal Del Camino (2022) HD 1080p Latino

    1h 42m 2022

    Descargar Borrego: Sal Del Camino (2022) HD 1080p Latino. Una joven botánica se traslada a un pequeño...

    Director: Jesse Harris

    Género: Crimen

    Actores: Olivia Trujillo

  • Borrego: Sal Del Camino (2022) REMUX 1080p Latino

    Borrego: Sal Del Camino (2022) REMUX 1080p Latino

    2022
    Borrego: Sal Del Camino (2022) REMUX 1080p Latino

    1h 42m 2022

    Descargar Borrego: Sal Del Camino (2022) REMUX 1080p Latino. Una joven botánica se traslada a un pequeño...

    Director: Jesse Harris

    Género: Crimen

    Actores: Olivia Trujillo

  • Infiniti (2022) Primera Temporada WEB-DL 1080p Latino

    Infiniti (2022) Primera Temporada WEB-DL 1080p Latino

    2022
    Infiniti (2022) Primera Temporada WEB-DL 1080p Latino

    0h 52m 2022

    La ISS, la Estación Espacial Internacional se ha quedado en silencio. La tripulación está en peligro....

    Director: Stéphane Pannetier

    Género: Drama

    Actores: Vlad Ivanov

descargar Heridas abiertas (2018) (Miniserie de TV) REMUX 1080p Latino – CMHDD Full 1080p 1080p gratis, Heridas abiertas (2018) (Miniserie de TV) REMUX 1080p Latino – CMHDD Full 1080p mega 1 link, Heridas abiertas (2018) (Miniserie de TV) REMUX 1080p Latino – CMHDD Full 1080p pelicula completa, descargar Heridas abiertas (2018) (Miniserie de TV) REMUX 1080p Latino – CMHDD Full 1080p gratis en mega.

Heridas abiertas (2018) (Miniserie de TV) REMUX 1080p Latino – CMHDD pelicula full hd, Heridas abiertas (2018) (Miniserie de TV) REMUX 1080p Latino – CMHDD mega latino, Heridas abiertas (2018) (Miniserie de TV) REMUX 1080p Latino – CMHDD 4k latino, Heridas abiertas (2018) (Miniserie de TV) REMUX 1080p Latino – CMHDD pelicula completa, Heridas abiertas (2018) (Miniserie de TV) REMUX 1080p Latino – CMHDD descargar gratis, descargar Heridas abiertas (2018) (Miniserie de TV) REMUX 1080p Latino – CMHDD pelicula latino, Heridas abiertas (2018) (Miniserie de TV) REMUX 1080p Latino – CMHDD 1 link mega, Heridas abiertas (2018) (Miniserie de TV) REMUX 1080p Latino – CMHDD 1 link google drive, Heridas abiertas (2018) (Miniserie de TV) REMUX 1080p Latino – CMHDD hd 1080p latino.
Comentarios 0