×

¿Problemas para descargar con Mozilla, EDGE? Deshabilita la opción "Abrir vinculos en una pestaña nueva" tal como lo muestra ésta imagen.

Hércules (2014) Theatrical 4K UHD SDR WEB Latino

347 vistas

Información de Hércules (2014) Theatrical 4K UHD SDR WEB Latino

Datos de la película

  • Calidad: WEBDL
  • Audio: Se especifica abajo de la Sinopsis
  • Subtitulos: Español Latino SRT - Ingles SRT
  • Resolución: 3840x2160p
  • Formato: MKV
  • Codec: HEVC
  • Encoder: CinefiloCool
  • Mediainfo: Clic para Mostrar Datos Ver
  • Hercules (2014) Theatrical 4K UHD SDR WEB Latino-CMHDD.mkv
    Format                      : Matroska
    Format version              : Version 4
    File size                   : 10.9 GiB
    Duration                    : 1 h 38 min
    Overall bit rate            : 16.0 Mb/s
    Movie name                  : Hercules (2014) CinemaniaHDD.Net
    Encoded date                : UTC 2020-07-29 04:27:13
    Writing application         : mkvmerge v46.0.0 ('No Deeper Escape') 64-bit
    Writing library             : libebml v1.3.10 + libmatroska v1.5.2
    Attachments                 : CINEMANIAHD.png

    Video
    ID                          : 1
    Format                      : HEVC
    Format/Info                 : High Efficiency Video Coding
    Format profile              : Main 10@L5.1@Main
    Codec ID                    : V_MPEGH/ISO/HEVC
    Duration                    : 1 h 38 min
    Bit rate                    : 14.9 Mb/s
    Width                       : 3 840 pixels
    Height                      : 2 160 pixels
    Display aspect ratio        : 16:9
    Frame rate mode             : Constant
    Frame rate                  : 23.976 (24000/1001) FPS
    Original frame rate         : 23.976 (23976/1000) FPS
    Color space                 : YUV
    Chroma subsampling          : 4:2:0
    Bit depth                   : 10 bits
    Bits/(Pixel*Frame)          : 0.075
    Stream size                 : 10.2 GiB (93%)
    Title                       : Web 2160p SDR [CinemaniaHDD]
    Language                    : English
    Default                     : Yes
    Forced                      : No
    Color range                 : Limited
    Color primaries             : BT.709
    Transfer characteristics    : BT.709
    Matrix coefficients         : BT.709

    Audio #1
    ID                          : 2
    Format                      : AC-3
    Format/Info                 : Audio Coding 3
    Commercial name             : Dolby Digital
    Codec ID                    : A_AC3
    Duration                    : 1 h 38 min
    Bit rate mode               : Constant
    Bit rate                    : 640 kb/s
    Channel(s)                  : 6 channels
    Channel layout              : L R C LFE Ls Rs
    Sampling rate               : 48.0 kHz
    Frame rate                  : 31.250 FPS (1536 SPF)
    Compression mode            : Lossy
    Delay relative to video     : 1 s 10 ms
    Stream size                 : 449 MiB (4%)
    Title                       : Español Latino [CinemaniaHDD]
    Language                    : Spanish
    Service kind                : Complete Main
    Default                     : Yes
    Forced                      : No

    Audio #2
    ID                          : 3
    Format                      : AC-3
    Format/Info                 : Audio Coding 3
    Commercial name             : Dolby Digital
    Codec ID                    : A_AC3
    Duration                    : 1 h 38 min
    Bit rate mode               : Constant
    Bit rate                    : 448 kb/s
    Channel(s)                  : 6 channels
    Channel layout              : L R C LFE Ls Rs
    Sampling rate               : 48.0 kHz
    Frame rate                  : 31.250 FPS (1536 SPF)
    Compression mode            : Lossy
    Stream size                 : 314 MiB (3%)
    Title                       : Ingles [CinemaniaHDD]
    Language                    : English
    Service kind                : Complete Main
    Default                     : No
    Forced                      : No

    Text #1
    ID                          : 4
    Format                      : UTF-8
    Codec ID                    : S_TEXT/UTF8
    Codec ID/Info               : UTF-8 Plain Text
    Duration                    : 1 h 28 min
    Bit rate                    : 0 b/s
    Count of elements           : 8
    Stream size                 : 203 Bytes (0%)
    Title                       : Forzados-SRT [CinemaniaHDD]
    Language                    : Spanish
    Default                     : Yes
    Forced                      : No

    Text #2
    ID                          : 5
    Format                      : UTF-8
    Codec ID                    : S_TEXT/UTF8
    Codec ID/Info               : UTF-8 Plain Text
    Duration                    : 1 h 32 min
    Bit rate                    : 41 b/s
    Count of elements           : 861
    Stream size                 : 28.2 KiB (0%)
    Title                       : Español-SRT [CinemaniaHDD]
    Language                    : Spanish
    Default                     : No
    Forced                      : No

    Text #3
    ID                          : 6
    Format                      : UTF-8
    Codec ID                    : S_TEXT/UTF8
    Codec ID/Info               : UTF-8 Plain Text
    Duration                    : 1 h 30 min
    Bit rate                    : 52 b/s
    Count of elements           : 1223
    Stream size                 : 34.6 KiB (0%)
    Title                       : Ingles-SRT [CinemaniaHDD]
    Language                    : English
    Default                     : No
    Forced                      : No

  • Peso: 10.9 GiB

Sinopsis

Descargar Hércules (2014) Theatrical 4K UHD SDR WEB Latino. Hace mil cuatrocientos años, un alma atormentada recorrió la tierra que no era hombre ni dios. Hércules era el poderoso hijo del dios rey Zeus, por lo cual no recibió más que sufrir toda su vida. Después de doce trabajos arduos y la pérdida de su familia, este alma oscura y cansada del mundo dio la espalda a los dioses encontrando su único consuelo en una sangrienta batalla. A lo largo de los años se calentó a la compañía de seis almas similares, siendo su único vínculo su amor por la lucha y la presencia de la muerte. Estos hombres y mujeres nunca se preguntan dónde van a pelear o por qué o quién, cuánto se les pagará. Ahora el rey de Tracia ha contratado a estos mercenarios para que entrenen a sus hombres para que se conviertan en el mayor ejército de todos los tiempos.

Audio Español Latino AC3 5.1 Bluray – Ingles AC3 5.1 WebDL

Ficha técnica

Video trailer de la película

Enlaces de descarga

Rip de Bluray

Descargar Hércules (2014) Theatrical 4K UHD SDR WEB Latino




Aportes de DPeliculasHDmega la pass es:dpeliculashdmega.org Aportes de CinemaniaHD la pass es:cinemaniahdd.com
Guardado en : 4K UHD , Acción , Aventura

Películas relacionadas

descargar Hércules (2014) Theatrical 4K UHD SDR WEB Latino WEBDL 1080p gratis, Hércules (2014) Theatrical 4K UHD SDR WEB Latino WEBDL mega 1 link, Hércules (2014) Theatrical 4K UHD SDR WEB Latino WEBDL pelicula completa, descargar Hércules (2014) Theatrical 4K UHD SDR WEB Latino WEBDL gratis en mega.

Hércules (2014) Theatrical 4K UHD SDR WEB Latino pelicula full hd, Hércules (2014) Theatrical 4K UHD SDR WEB Latino mega latino, Hércules (2014) Theatrical 4K UHD SDR WEB Latino 4k latino, Hércules (2014) Theatrical 4K UHD SDR WEB Latino pelicula completa, Hércules (2014) Theatrical 4K UHD SDR WEB Latino descargar gratis, descargar Hércules (2014) Theatrical 4K UHD SDR WEB Latino pelicula latino, Hércules (2014) Theatrical 4K UHD SDR WEB Latino 1 link mega, Hércules (2014) Theatrical 4K UHD SDR WEB Latino 1 link google drive, Hércules (2014) Theatrical 4K UHD SDR WEB Latino hd 1080p latino.
Comentarios 0