Hércules (2014) REMUX 1080p Latino

36 vistas
1 estrella2 estrellas3 estrellas4 estrellas5 estrellas (Ninguna valoración todavía)
Cargando...

Información de Hércules (2014) REMUX 1080p Latino

Datos de la película

  • Calidad: Full 1080p
  • Audio: Español Latino AC3 5.1 BLURAY - Ingles DTS-HD Master 7.1 BLURAY
  • Subtitulos: Español Latino PGS - Ingles PGS
  • Resolución: 1920x1080p
  • Formato: MKV
  • Codec: H.264
  • Encoder: CinefiloCool
  • Mediainfo: Clic para Mostrar Datos Ver
  • Hercules (2014) REMUX 1080p Latino-CMHDD.mkv
    Format                      : Matroska
    Format version              : Version 4
    File size                   : 21.0 GiB
    Duration                    : 1 h 38 min
    Overall bit rate mode       : Variable
    Overall bit rate            : 30.6 Mb/s
    Movie name                  : Hercules (2014) CinemaniaHDD.Net
    Encoded date                : UTC 2020-08-04 01:25:34
    Writing application         : mkvmerge v46.0.0 ('No Deeper Escape') 64-bit
    Writing library             : libebml v1.3.10 + libmatroska v1.5.2
    Attachments                 : CINEMANIAHD.png

    Video
    ID                          : 1
    Format                      : AVC
    Format/Info                 : Advanced Video Codec
    Format profile              : High@L4.1
    Format settings             : CABAC / 4 Ref Frames
    Format settings, CABAC      : Yes
    Format settings, Reference  : 4 frames
    Codec ID                    : V_MPEG4/ISO/AVC
    Duration                    : 1 h 38 min
    Bit rate mode               : Variable
    Bit rate                    : 24.5 Mb/s
    Maximum bit rate            : 35.0 Mb/s
    Width                       : 1 920 pixels
    Height                      : 1 080 pixels
    Display aspect ratio        : 16:9
    Frame rate mode             : Constant
    Frame rate                  : 23.976 (23976/1000) FPS
    Original frame rate         : 23.976 (24000/1001) FPS
    Color space                 : YUV
    Chroma subsampling          : 4:2:0
    Bit depth                   : 8 bits
    Scan type                   : Progressive
    Bits/(Pixel*Frame)          : 0.493
    Stream size                 : 16.8 GiB (80%)
    Title                       : REMUX 1080p [CinemaniaHDD]
    Default                     : Yes
    Forced                      : Yes

    Audio #1
    ID                          : 2
    Format                      : AC-3
    Format/Info                 : Audio Coding 3
    Commercial name             : Dolby Digital
    Codec ID                    : A_AC3
    Duration                    : 1 h 38 min
    Bit rate mode               : Constant
    Bit rate                    : 640 kb/s
    Channel(s)                  : 6 channels
    Channel layout              : L R C LFE Ls Rs
    Sampling rate               : 48.0 kHz
    Frame rate                  : 31.250 FPS (1536 SPF)
    Compression mode            : Lossy
    Stream size                 : 449 MiB (2%)
    Title                       : Español Latino [CinemaniaHDD]
    Language                    : Spanish
    Service kind                : Complete Main
    Default                     : Yes
    Forced                      : Yes

    Audio #2
    ID                          : 3
    Format                      : DTS XLL
    Format/Info                 : Digital Theater Systems
    Commercial name             : DTS-HD Master Audio
    Codec ID                    : A_DTS
    Duration                    : 1 h 38 min
    Bit rate mode               : Variable
    Bit rate                    : 5 414 kb/s
    Channel(s)                  : 8 channels
    Channel layout              : C L R LFE Lb Rb Lss Rss
    Sampling rate               : 48.0 kHz
    Frame rate                  : 93.750 FPS (512 SPF)
    Bit depth                   : 24 bits
    Compression mode            : Lossless
    Stream size                 : 3.71 GiB (18%)
    Title                       : Ingles [CinemaniaHDD]
    Language                    : English
    Default                     : No
    Forced                      : No

    Text #1
    ID                          : 4
    Format                      : PGS
    Muxing mode                 : zlib
    Codec ID                    : S_HDMV/PGS
    Codec ID/Info               : Picture based subtitle format used on BDs/HD-DVDs
    Duration                    : 1 h 28 min
    Bit rate                    : 235 b/s
    Count of elements           : 16
    Stream size                 : 153 KiB (0%)
    Title                       : Forzados-PGS [CinemaniaHDD]
    Language                    : Spanish
    Default                     : Yes
    Forced                      : Yes

    Text #2
    ID                          : 5
    Format                      : PGS
    Muxing mode                 : zlib
    Codec ID                    : S_HDMV/PGS
    Codec ID/Info               : Picture based subtitle format used on BDs/HD-DVDs
    Duration                    : 1 h 32 min
    Bit rate                    : 25.9 kb/s
    Count of elements           : 1736
    Stream size                 : 17.1 MiB (0%)
    Title                       : Español-PGS [CinemaniaHDD]
    Language                    : Spanish
    Default                     : No
    Forced                      : No

    Text #3
    ID                          : 6
    Format                      : PGS
    Muxing mode                 : zlib
    Codec ID                    : S_HDMV/PGS
    Codec ID/Info               : Picture based subtitle format used on BDs/HD-DVDs
    Duration                    : 1 h 30 min
    Bit rate                    : 27.7 kb/s
    Count of elements           : 1858
    Stream size                 : 17.8 MiB (0%)
    Title                       : Ingles-PGS [CinemaniaHDD]
    Language                    : English
    Default                     : No
    Forced                      : No

    Text #4
    ID                          : 7
    Format                      : UTF-8
    Codec ID                    : S_TEXT/UTF8
    Codec ID/Info               : UTF-8 Plain Text
    Duration                    : 1 h 28 min
    Bit rate                    : 0 b/s
    Count of elements           : 8
    Stream size                 : 203 Bytes (0%)
    Title                       : Forzados-SRT [CinemaniaHDD]
    Language                    : Spanish
    Default                     : No
    Forced                      : No

    Text #5
    ID                          : 8
    Format                      : UTF-8
    Codec ID                    : S_TEXT/UTF8
    Codec ID/Info               : UTF-8 Plain Text
    Duration                    : 1 h 30 min
    Bit rate                    : 42 b/s
    Count of elements           : 863
    Stream size                 : 28.3 KiB (0%)
    Title                       : Español-SRT [CinemaniaHDD]
    Language                    : Spanish
    Default                     : No
    Forced                      : No

    Menu
    00:00:00.000                : en:Chapter 01
    00:08:10.781                : en:Chapter 02
    00:14:15.813                : en:Chapter 03
    00:23:38.250                : en:Chapter 04
    00:30:02.050                : en:Chapter 05
    00:39:31.869                : en:Chapter 06
    00:48:16.059                : en:Chapter 07
    00:54:12.999                : en:Chapter 08
    01:02:26.492                : en:Chapter 09
    01:12:36.727                : en:Chapter 10
    01:20:57.769                : en:Chapter 11
    01:30:52.071                : en:Chapter 12

  • Peso: 21.0 GiB

Sinopsis

Descargar Hércules (2014) REMUX 1080p Latino. Hércules, como todos los héroes griegos, es un semidios. Tras realizar los terribles doce trabajos que le fueron impuestos y tras perder a su familia, decide darle la espalda a los dioses y encontrar consuelo en la búsqueda de aventuras. Gracias a sus andanzas, ha encontrado hombres afines que se han unido a él, pues comparten su amor por el combate y no temen la presencia constante de la muerte en sus vidas. El rey de Tracia pretende que estos hombres formen un ejército invencible. Adaptación de la novela gráfica de 2008 «Hercules: The Thracian War».

Ficha técnica

Video trailer de la película

Enlaces de descarga

Rip de Bluray

Descargar Hércules (2014) REMUX 1080p Latino




Aportes de DPeliculasHDmega la pass es:dpeliculashdmega.org Aportes de CinemaniaHD la pass es:cinemaniahdd.com
Guardado en : Acción , Aventura , Remux

Películas relacionadas

  • Rogue (2020) HD 1080p Latino

    Rogue (2020) HD 1080p Latino

    2020
    Rogue (2020) HD 1080p Latino

    0.0 1h 46m 2020

    Descargar Rogue (2020) HD 1080p Latino. O'Hara es una mercenaria que dirige un escuadrón de soldados...

    Director: M.J. Bassett

    Género: Acción

    Actores: Tamer Burjaq

  • Rogue (2020) PLACEBO Full HD 1080p Latino

    Rogue (2020) PLACEBO Full HD 1080p Latino

    2020
    Rogue (2020) PLACEBO Full HD 1080p Latino

    0.0 1h 46m 2020

    Descargar Rogue (2020) PLACEBO Full HD 1080p Latino. O'Hara es una mercenaria que dirige un escuadrón...

    Director: M.J. Bassett

    Género: Acción

    Actores: Tamer Burjaq

  • Rogue (2020) REMUX 1080p Latino

    Rogue (2020) REMUX 1080p Latino

    2020
    Rogue (2020) REMUX 1080p Latino

    0.0 1h 46m 2020

    Descargar Rogue (2020) REMUX 1080p Latino. O'Hara es una mercenaria que dirige un escuadrón de soldados...

    Director: M.J. Bassett

    Género: Acción

    Actores: Tamer Burjaq

  • No Mercy (2019) HD 1080p Latino

    No Mercy (2019) HD 1080p Latino

    2019
    No Mercy (2019) HD 1080p Latino

    5.0 1h 34m 2019

    Una mujer busca vengarse cuando su joven hermana desaparece y descubre que ésta sufrió violencia y...

    Director: Lim Kyoung-tack

    Género: Acción

    Actores: Park Se-wan

Comentarios 1
  • ocpgaiden - 04 agosto, 2020

    Gracias por Hercules Remux, saludos