Hercules (1997) Full HD 1080p Latino – CMHDD

106 vistas
1 estrella2 estrellas3 estrellas4 estrellas5 estrellas (Ninguna valoración todavía)
Cargando...

Información de Hercules (1997) Full HD 1080p Latino – CMHDD

Datos de la película

  • Calidad: Full 1080p
  • Audio: Español Latino AC3 5.1 BLURAY - Ingles DTS 5.1 BLURAY
  • Subtitulos: Español Latino SRT
  • Resolución: 1920x1080p
  • Formato: MKV
  • Codec: H.264
  • Encoder: Dracarys
  • Mediainfo: Clic para Mostrar Datos Ver
  • Format                      : Matroska
    Format version              : Version 4
    File size                   : 5.65 GiB
    Duration                    : 1 h 33 min
    Overall bit rate mode       : Variable
    Overall bit rate            : 8 682 kb/s
    Movie name                  : Hercules (1997) Full HD 1080p Latino - CMHDD
    Encoded date                : UTC 2020-08-08 03:25:08
    Writing application         : mkvmerge v46.0.0 ('No Deeper Escape') 64-bit
    Writing library             : libebml v1.3.10 + libmatroska v1.5.2

    Video
    ID                          : 1
    Format                      : AVC
    Format/Info                 : Advanced Video Codec
    Format profile              : High@L4.1
    Format settings             : CABAC / 4 Ref Frames
    Format settings, CABAC      : Yes
    Format settings, Reference  : 4 frames
    Codec ID                    : V_MPEG4/ISO/AVC
    Duration                    : 1 h 33 min
    Bit rate                    : 3 713 kb/s
    Width                       : 1 920 pixels
    Height                      : 1 080 pixels
    Display aspect ratio        : 16:9
    Frame rate mode             : Constant
    Frame rate                  : 23.976 (24000/1001) FPS
    Color space                 : YUV
    Chroma subsampling          : 4:2:0
    Bit depth                   : 8 bits
    Scan type                   : Progressive
    Bits/(Pixel*Frame)          : 0.075
    Stream size                 : 2.42 GiB (43%)
    Writing library             : x264 core 157 r2935 545de2f
    Encoding settings           : cabac=1 / ref=4 / deblock=1:0:0 / analyse=0x3:0x133 / me=tesa / subme=11 / psy=1 / psy_rd=1.00:0.00 / mixed_ref=1 / me_range=24 / chroma_me=1 / trellis=2 / 8x8dct=1 / cqm=0 / deadzone=21,11 / fast_pskip=0 / chroma_qp_offset=-2 / threads=24 / lookahead_threads=6 / sliced_threads=0 / nr=0 / decimate=1 / interlaced=0 / bluray_compat=0 / constrained_intra=0 / bframes=16 / b_pyramid=2 / b_adapt=2 / b_bias=0 / direct=3 / weightb=1 / open_gop=0 / weightp=2 / keyint=240 / keyint_min=24 / scenecut=40 / intra_refresh=0 / rc_lookahead=60 / rc=crf / mbtree=1 / crf=20.0 / qcomp=0.60 / qpmin=0 / qpmax=69 / qpstep=4 / vbv_maxrate=62500 / vbv_bufsize=78125 / crf_max=0.0 / nal_hrd=none / filler=0 / ip_ratio=1.40 / aq=1:1.00
    Default                     : Yes
    Forced                      : No
    Color range                 : Limited
    Color primaries             : BT.709
    Transfer characteristics    : BT.709
    Matrix coefficients         : BT.709

    Audio #1
    ID                          : 2
    Format                      : AC-3
    Format/Info                 : Audio Coding 3
    Commercial name             : Dolby Digital
    Codec ID                    : A_AC3
    Duration                    : 1 h 33 min
    Bit rate mode               : Constant
    Bit rate                    : 448 kb/s
    Channel(s)                  : 6 channels
    Channel layout              : L R C LFE Ls Rs
    Sampling rate               : 48.0 kHz
    Frame rate                  : 31.250 FPS (1536 SPF)
    Compression mode            : Lossy
    Stream size                 : 298 MiB (5%)
    Language                    : Spanish
    Service kind                : Complete Main
    Default                     : Yes
    Forced                      : No

    Audio #2
    ID                          : 3
    Format                      : DTS XLL
    Format/Info                 : Digital Theater Systems
    Commercial name             : DTS-HD Master Audio
    Codec ID                    : A_DTS
    Duration                    : 1 h 33 min
    Bit rate mode               : Variable
    Bit rate                    : 4 518 kb/s
    Channel(s)                  : 6 channels
    Channel layout              : C L R Ls Rs LFE
    Sampling rate               : 48.0 kHz
    Frame rate                  : 93.750 FPS (512 SPF)
    Bit depth                   : 24 bits
    Compression mode            : Lossless
    Stream size                 : 2.94 GiB (52%)
    Language                    : English
    Default                     : No
    Forced                      : No

    Text
    ID                          : 4
    Format                      : UTF-8
    Codec ID                    : S_TEXT/UTF8
    Codec ID/Info               : UTF-8 Plain Text
    Duration                    : 1 h 32 min
    Bit rate                    : 61 b/s
    Count of elements           : 1461
    Stream size                 : 41.8 KiB (0%)
    Language                    : Spanish
    Default                     : No
    Forced                      : No

    Menu
    00:00:00.000                : :Chapter 1
    00:00:32.866                : :Chapter 2
    00:02:28.732                : :Chapter 3
    00:05:16.608                : :Chapter 4
    00:07:55.392                : :Chapter 5
    00:10:59.659                : :Chapter 6
    00:14:23.196                : :Chapter 7
    00:18:28.691                : :Chapter 8
    00:20:12.670                : :Chapter 9
    00:21:01.469                : :Chapter 10
    00:25:29.987                : :Chapter 11
    00:28:21.325                : :Chapter 12
    00:32:08.927                : :Chapter 13
    00:35:20.744                : :Chapter 14
    00:39:12.350                : :Chapter 15
    00:44:26.247                : :Chapter 16
    00:48:29.198                : :Chapter 17
    00:51:32.548                : :Chapter 18
    00:53:47.391                : :Chapter 19
    00:55:20.651                : :Chapter 20
    00:57:49.633                : :Chapter 21
    01:01:18.383                : :Chapter 22
    01:03:47.657                : :Chapter 23
    01:07:44.978                : :Chapter 24
    01:10:27.932                : :Chapter 25
    01:15:17.513                : :Chapter 26
    01:17:08.499                : :Chapter 27
    01:19:13.332                : :Chapter 28
    01:20:55.142                : :Chapter 29
    01:23:44.478                : :Chapter 30
    01:26:01.281                : :Chapter 31
    01:27:03.218                : :Chapter 32

  • Peso: 5.65 GiB

Sinopsis

Hércules, el hijo de Hera y el dios Zeus, es robado del Olimpo por los secuaces de Hares, que tienen la misión de desprotegerle de su inmortalidad. Hércules crecerá en un mundo de mortales hasta que le llegue la hora de regresar al olimpo.

Ficha técnica

Video trailer de la película

Enlaces de descarga

Rip de Bluray

Descargar Hercules (1997) Full HD 1080p Latino – CMHDD




Aportes de DPeliculasHDmega la pass es:dpeliculashdmega.org Aportes de CinemaniaHD la pass es:cinemaniahdd.com

Películas relacionadas

Comentarios 0