×

¿Problemas para descargar con Mozilla, EDGE? Deshabilita la opción "Abrir vinculos en una pestaña nueva" tal como lo muestra ésta imagen.

Her Smell (2019) REMUX 1080p Latino

578 vistas

Información de Her Smell (2019) REMUX 1080p Latino

Datos de la película

  • Calidad: Full 1080p
  • Audio: Español Latino AC3 2.0 DVD - Ingles DTS 5.1 BLURAY
  • Subtitulos: No Disponible en Subdivx
  • Resolución: 1920x1080p
  • Formato: MKV
  • Codec: H.264
  • Encoder: CinefiloCool
  • Mediainfo: Clic para Mostrar Datos Ver
  • Her Smell (2018) REMUX 1080p Latino-CMHDD.mkv
    Format                      : Matroska
    Format version              : Version 4
    File size                   : 21.7 GiB
    Duration                    : 2 h 15 min
    Overall bit rate mode       : Variable
    Overall bit rate            : 23.0 Mb/s
    Movie name                  : CinemaniaHDD.Net
    Encoded date                : UTC 2020-01-30 01:13:14
    Writing application         : mkvmerge v42.0.0 ('Overtime') 64-bit
    Writing library             : libebml v1.3.10 + libmatroska v1.5.2
    Attachments                 : CINEMANIAHD.png

    Video
    ID                          : 1
    Format                      : AVC
    Format/Info                 : Advanced Video Codec
    Format profile              : High@L4.1
    Format settings             : CABAC / 2 Ref Frames
    Format settings, CABAC      : Yes
    Format settings, ReFrames   : 2 frames
    Format settings, GOP        : M=1, N=5
    Codec ID                    : V_MPEG4/ISO/AVC
    Duration                    : 2 h 15 min
    Bit rate mode               : Variable
    Bit rate                    : 19.2 Mb/s
    Maximum bit rate            : 38.2 Mb/s
    Width                       : 1 920 pixels
    Height                      : 1 080 pixels
    Display aspect ratio        : 16:9
    Frame rate mode             : Constant
    Frame rate                  : 23.976 (24000/1001) FPS
    Color space                 : YUV
    Chroma subsampling          : 4:2:0
    Bit depth                   : 8 bits
    Scan type                   : Progressive
    Bits/(Pixel*Frame)          : 0.386
    Stream size                 : 18.1 GiB (84%)
    Title                       : Full HD1080p [REMUX]
    Default                     : Yes
    Forced                      : Yes

    Audio #1
    ID                          : 2
    Format                      : AC-3
    Format/Info                 : Audio Coding 3
    Commercial name             : Dolby Digital
    Codec ID                    : A_AC3
    Duration                    : 2 h 15 min
    Bit rate mode               : Constant
    Bit rate                    : 256 kb/s
    Channel(s)                  : 2 channels
    Channel layout              : L R
    Sampling rate               : 48.0 kHz
    Frame rate                  : 31.250 FPS (1536 SPF)
    Bit depth                   : 16 bits
    Compression mode            : Lossy
    Stream size                 : 248 MiB (1%)
    Title                       : AC3_2.0_DVD_Esp
    Language                    : Spanish
    Service kind                : Complete Main
    Default                     : Yes
    Forced                      : Yes

    Audio #2
    ID                          : 3
    Format                      : DTS XLL
    Format/Info                 : Digital Theater Systems
    Commercial name             : DTS-HD Master Audio
    Codec ID                    : A_DTS
    Duration                    : 2 h 15 min
    Bit rate mode               : Variable
    Bit rate                    : 3 513 kb/s
    Channel(s)                  : 6 channels
    Channel layout              : C L R Ls Rs LFE
    Sampling rate               : 48.0 kHz
    Frame rate                  : 93.750 FPS (512 SPF)
    Bit depth                   : 24 bits
    Compression mode            : Lossless
    Stream size                 : 3.33 GiB (15%)
    Title                       : DTS-HD_5.1_Bluray_Eng
    Language                    : English
    Default                     : No
    Forced                      : No

    Text
    ID                          : 4
    Format                      : PGS
    Muxing mode                 : zlib
    Codec ID                    : S_HDMV/PGS
    Codec ID/Info               : Picture based subtitle format used on BDs/HD-DVDs
    Duration                    : 2 h 11 min
    Bit rate                    : 46.4 kb/s
    Count of elements           : 4131
    Stream size                 : 43.7 MiB (0%)
    Title                       : Sub_Eng [PGS]
    Language                    : English
    Default                     : No
    Forced                      : No

    Menu
    00:00:00.000                : en:Chapter 1
    00:13:58.670                : en:Chapter 2
    00:24:41.688                : en:Chapter 3
    00:33:44.438                : en:Chapter 4
    00:44:31.334                : en:Chapter 5
    00:55:28.824                : en:Chapter 6
    01:03:00.734                : en:Chapter 7
    01:18:30.830                : en:Chapter 8
    01:28:33.349                : en:Chapter 9
    01:34:42.509                : en:Chapter 10
    01:44:50.783                : en:Chapter 11
    01:49:23.723                : en:Chapter 12
    02:01:29.072                : en:Chapter 13
    02:11:36.721                : en:Chapter 14

  • Peso: 21.7 GiB

Sinopsis

Descargar Her Smell (2019) REMUX 1080p Latino. Becky (Elisabeth Moss) es una autodestructiva rockera punk que trata de recuperar la inspiración que llevó a su banda musical al éxito.

Ficha técnica

Video trailer de la película

Enlaces de descarga

Rip de Bluray

Descargar Her Smell (2019) REMUX 1080p Latino




Aportes de DPeliculasHDmega la pass es:dpeliculashdmega.org Aportes de CinemaniaHD la pass es:cinemaniahdd.com
Guardado en : Drama , Música , Remux

Películas relacionadas

descargar Her Smell (2019) REMUX 1080p Latino Full 1080p 1080p gratis, Her Smell (2019) REMUX 1080p Latino Full 1080p mega 1 link, Her Smell (2019) REMUX 1080p Latino Full 1080p pelicula completa, descargar Her Smell (2019) REMUX 1080p Latino Full 1080p gratis en mega.

Her Smell (2019) REMUX 1080p Latino pelicula full hd, Her Smell (2019) REMUX 1080p Latino mega latino, Her Smell (2019) REMUX 1080p Latino 4k latino, Her Smell (2019) REMUX 1080p Latino pelicula completa, Her Smell (2019) REMUX 1080p Latino descargar gratis, descargar Her Smell (2019) REMUX 1080p Latino pelicula latino, Her Smell (2019) REMUX 1080p Latino 1 link mega, Her Smell (2019) REMUX 1080p Latino 1 link google drive, Her Smell (2019) REMUX 1080p Latino hd 1080p latino.
Comentarios 0