×

¿Problemas para descargar con Mozilla, EDGE? Deshabilita la opción "Abrir vinculos en una pestaña nueva" tal como lo muestra ésta imagen.

Her (2013) REMUX 1080p Latino – CMHDD

223 vistas

Información de Her (2013) REMUX 1080p Latino – CMHDD

Datos de la película

  • Calidad: Full 1080p
  • Audio: Español Latino AC3 5.1 BLURAY - Ingles DTS 5.1 BLURAY
  • Subtitulos: Español Latino PGS
  • Resolución: 1920x1080p
  • Formato: MKV
  • Codec: H.264
  • Encoder: Dracarys
  • Mediainfo: Clic para Mostrar Datos Ver
  • Format                      : Matroska
    Format version              : Version 4
    File size                   : 24.9 GiB
    Duration                    : 2 h 5 min
    Overall bit rate mode       : Variable
    Overall bit rate            : 28.4 Mb/s
    Movie name                  : Her (2013) REMUX 1080p Latino - CMHDD
    Encoded date                : UTC 2023-05-30 03:22:13
    Writing application         : mkvmerge v47.0.0 ('Black Flag') 64-bit
    Writing library             : libebml v1.3.10 + libmatroska v1.5.2
    Cover                       : Yes
    Attachments                 : cover.jpg

    Video
    ID                          : 1
    ID in the original source m : 4113 (0x1011)
    Format                      : AVC
    Format/Info                 : Advanced Video Codec
    Format profile              : High@L4.1
    Format settings             : CABAC / 2 Ref Frames
    Format settings, CABAC      : Yes
    Format settings, Reference  : 2 frames
    Format settings, GOP        : M=1, N=10
    Codec ID                    : V_MPEG4/ISO/AVC
    Duration                    : 2 h 5 min
    Bit rate mode               : Variable
    Bit rate                    : 24.5 Mb/s
    Width                       : 1 920 pixels
    Height                      : 1 080 pixels
    Display aspect ratio        : 16:9
    Frame rate mode             : Constant
    Frame rate                  : 23.976 (24000/1001) FPS
    Color space                 : YUV
    Chroma subsampling          : 4:2:0
    Bit depth                   : 8 bits
    Scan type                   : Progressive
    Bits/(Pixel*Frame)          : 0.493
    Stream size                 : 21.6 GiB (86%)
    Default                     : Yes
    Forced                      : No
    Original source medium      : Blu-ray

    Audio #1
    ID                          : 2
    ID in the original source m : 4352 (0x1100)
    Format                      : DTS XLL
    Format/Info                 : Digital Theater Systems
    Commercial name             : DTS-HD Master Audio
    Codec ID                    : A_DTS
    Duration                    : 2 h 5 min
    Bit rate mode               : Variable
    Bit rate                    : 3 189 kb/s
    Channel(s)                  : 6 channels
    Channel layout              : C L R Ls Rs LFE
    Sampling rate               : 48.0 kHz
    Frame rate                  : 93.750 FPS (512 SPF)
    Bit depth                   : 24 bits
    Compression mode            : Lossless
    Stream size                 : 2.80 GiB (11%)
    Language                    : English
    Default                     : No
    Forced                      : No
    Original source medium      : Blu-ray

    Audio #2
    ID                          : 3
    ID in the original source m : 4354 (0x1102)
    Format                      : AC-3
    Format/Info                 : Audio Coding 3
    Commercial name             : Dolby Digital
    Codec ID                    : A_AC3
    Duration                    : 2 h 5 min
    Bit rate mode               : Constant
    Bit rate                    : 640 kb/s
    Channel(s)                  : 6 channels
    Channel layout              : L R C LFE Ls Rs
    Sampling rate               : 48.0 kHz
    Frame rate                  : 31.250 FPS (1536 SPF)
    Compression mode            : Lossy
    Stream size                 : 576 MiB (2%)
    Language                    : Spanish
    Service kind                : Complete Main
    Default                     : Yes
    Forced                      : No
    Original source medium      : Blu-ray

    Text #1
    ID                          : 4
    ID in the original source m : 4610 (0x1202)
    Format                      : PGS
    Muxing mode                 : zlib
    Codec ID                    : S_HDMV/PGS
    Codec ID/Info               : Picture based subtitle format used on BDs/HD-DVDs
    Duration                    : 2 h 5 min
    Bit rate                    : 32.7 kb/s
    Frame rate                  : 0.462 FPS
    Count of elements           : 3470
    Stream size                 : 29.3 MiB (0%)
    Language                    : Spanish
    Default                     : No
    Forced                      : No
    Original source medium      : Blu-ray

    Text #2
    ID                          : 5
    ID in the original source m : 4612 (0x1204)
    Format                      : PGS
    Muxing mode                 : zlib
    Codec ID                    : S_HDMV/PGS
    Codec ID/Info               : Picture based subtitle format used on BDs/HD-DVDs
    Duration                    : 2 h 3 min
    Bit rate                    : 434 b/s
    Frame rate                  : 0.006 FPS
    Count of elements           : 48
    Stream size                 : 393 KiB (0%)
    Language                    : Spanish
    Default                     : No
    Forced                      : No
    Original source medium      : Blu-ray

    Menu
    00:00:00.000                : en:Capítulo 01
    00:10:02.560                : en:Capítulo 02
    00:19:10.107                : en:Capítulo 03
    00:32:12.680                : en:Capítulo 04
    00:40:40.146                : en:Capítulo 05
    00:52:38.196                : en:Capítulo 06
    01:03:11.454                : en:Capítulo 07
    01:12:45.027                : en:Capítulo 08
    01:20:36.873                : en:Capítulo 09
    01:30:02.105                : en:Capítulo 10
    01:41:40.010                : en:Capítulo 11
    01:50:33.293                : en:Capítulo 12
    01:57:32.670                : en:Capítulo 13

  • Peso: 24.9 GiB

Sinopsis

En un futuro cercano, Theodore, un hombre solitario a punto de divorciarse que trabaja en una empresa como escritor de cartas para terceras personas, compra un día un nuevo sistema operativo basado en el modelo de Inteligencia Artificial, diseñado para satisfacer todas las necesidades del usuario. Para su sorpresa, se crea una relación romántica entre él y Samantha, la voz femenina de ese sistema operativo.

Ficha técnica

Video trailer de la película

Enlaces de descarga

Rip de Bluray

Descargar Her (2013) REMUX 1080p Latino – CMHDD


Aportes de DPeliculasHDmega la pass es:dpeliculashdmega.org Aportes de CinemaniaHD la pass es:cinemaniahdd.com Aportes recientes:cinemaniahdd.net
Guardado en : Ciencia ficción , Drama , Romance

Películas relacionadas

descargar Her (2013) REMUX 1080p Latino – CMHDD Full 1080p 1080p gratis, Her (2013) REMUX 1080p Latino – CMHDD Full 1080p mega 1 link, Her (2013) REMUX 1080p Latino – CMHDD Full 1080p pelicula completa, descargar Her (2013) REMUX 1080p Latino – CMHDD Full 1080p gratis en mega.

Her (2013) REMUX 1080p Latino – CMHDD pelicula full hd, Her (2013) REMUX 1080p Latino – CMHDD mega latino, Her (2013) REMUX 1080p Latino – CMHDD 4k latino, Her (2013) REMUX 1080p Latino – CMHDD pelicula completa, Her (2013) REMUX 1080p Latino – CMHDD descargar gratis, descargar Her (2013) REMUX 1080p Latino – CMHDD pelicula latino, Her (2013) REMUX 1080p Latino – CMHDD 1 link mega, Her (2013) REMUX 1080p Latino – CMHDD 1 link google drive, Her (2013) REMUX 1080p Latino – CMHDD hd 1080p latino.
Comentarios 0