×

¿Problemas para descargar con Mozilla, EDGE? Deshabilita la opción "Abrir vinculos en una pestaña nueva" tal como lo muestra ésta imagen.

Hemlock Grove (2013 – 2015) Serie Completa NF WEB-DL 1080p Latino

282 vistas

Información de Hemlock Grove (2013 – 2015) Serie Completa NF WEB-DL 1080p Latino

Datos de la película

  • Calidad: WEBDL
  • Audio: Español Latino AC3 5.1 Netflix - Ingles AC3 5.1 Netflix
  • Subtitulos: Español Latino SRT- FORZADOS SRT
  • Resolución: 1920x1080
  • Formato: MKV
  • Codec: H.264
  • Encoder: cinemaniahdd
  • Mediainfo: Clic para Mostrar Datos Ver
  • Hemlock Grove T01E01 NF WEB-DL 1080p Latino [CNMNHDD].mkv
    Format                      : Matroska
    Format version              : Version 4
    File size                   : 2.12 GiB
    Duration                    : 46 min 20 s
    Overall bit rate mode       : Variable
    Overall bit rate            : 6 537 kb/s
    Movie name                  : Hemlock Grove T01E01 - CinemaniaHDD.Net
    Encoded date                : UTC 2020-07-09 03:21:57
    Writing application         : mkvmerge v30.1.0 ('Forever And More') 64-bit
    Writing library             : libebml v1.3.6 + libmatroska v1.4.9 / Lavf58.28.101

    Video
    ID                          : 1
    Format                      : AVC
    Format/Info                 : Advanced Video Codec
    Format profile              : Main@L4
    Format settings             : CABAC / 3 Ref Frames
    Format settings, CABAC      : Yes
    Format settings, Reference  : 3 frames
    Codec ID                    : V_MPEG4/ISO/AVC
    Duration                    : 46 min 20 s
    Bit rate mode               : Variable
    Bit rate                    : 5 800 kb/s
    Maximum bit rate            : 8 700 kb/s
    Width                       : 1 920 pixels
    Height                      : 1 080 pixels
    Display aspect ratio        : 16:9
    Frame rate mode             : Constant
    Frame rate                  : 23.976 (24000/1001) FPS
    Color space                 : YUV
    Chroma subsampling          : 4:2:0
    Bit depth                   : 8 bits
    Scan type                   : Progressive
    Bits/(Pixel*Frame)          : 0.117
    Stream size                 : 1.87 GiB (88%)
    Title                       : CinemaniaHDD.Net
    Writing library             : x264 core 148 r2715 7e75228
    Encoding settings           : cabac=1 / ref=3 / deblock=1:0:0 / analyse=0x1:0x111 / me=umh / subme=10 / psy=1 / psy_rd=1.00:0.00 / mixed_ref=1 / me_range=24 / chroma_me=1 / trellis=2 / 8x8dct=0 / cqm=0 / deadzone=21,11 / fast_pskip=1 / chroma_qp_offset=-2 / threads=8 / lookahead_threads=1 / sliced_threads=0 / nr=0 / decimate=1 / interlaced=0 / bluray_compat=0 / stitchable=1 / constrained_intra=0 / bframes=2 / b_pyramid=0 / b_adapt=2 / b_bias=0 / direct=3 / weightb=1 / open_gop=0 / weightp=2 / keyint=48 / keyint_min=25 / scenecut=0 / intra_refresh=0 / rc_lookahead=48 / rc=2pass / mbtree=1 / bitrate=5800 / ratetol=1.0 / qcomp=0.50 / qpmin=6 / qpmax=51 / qpstep=4 / cplxblur=20.0 / qblur=0.5 / vbv_maxrate=8700 / vbv_bufsize=11600 / nal_hrd=vbr / filler=0 / ip_ratio=1.40 / aq=1:1.00
    Default                     : Yes
    Forced                      : No

    Audio #1
    ID                          : 2
    Format                      : AC-3
    Format/Info                 : Audio Coding 3
    Commercial name             : Dolby Digital
    Codec ID                    : A_AC3
    Duration                    : 46 min 20 s
    Bit rate mode               : Constant
    Bit rate                    : 384 kb/s
    Channel(s)                  : 6 channels
    Channel layout              : L R C LFE Ls Rs
    Sampling rate               : 48.0 kHz
    Frame rate                  : 31.250 FPS (1536 SPF)
    Compression mode            : Lossy
    Stream size                 : 127 MiB (6%)
    Title                       : Español latino [CinemaniaHDD]
    Language                    : Spanish
    Service kind                : Complete Main
    Default                     : Yes
    Forced                      : No

    Audio #2
    ID                          : 3
    Format                      : AC-3
    Format/Info                 : Audio Coding 3
    Commercial name             : Dolby Digital
    Codec ID                    : A_AC3
    Duration                    : 46 min 20 s
    Bit rate mode               : Constant
    Bit rate                    : 384 kb/s
    Channel(s)                  : 6 channels
    Channel layout              : L R C LFE Ls Rs
    Sampling rate               : 48.0 kHz
    Frame rate                  : 31.250 FPS (1536 SPF)
    Compression mode            : Lossy
    Stream size                 : 127 MiB (6%)
    Title                       : Inglés [CinemaniaHDD]
    Language                    : English
    Service kind                : Complete Main
    Default                     : No
    Forced                      : No

  • Peso: 2.12 GiB C/U APROX ---- 65.2 GiB in 33 chapter

Sinopsis

Uno no puede saciar su sed devoradora. El otro no puede domar la bestia arañando su salida. En el sueño del pueblo de Pennsylvania de Hemlock Grove, dos jóvenes luchan para aceptar verdades dolorosas: sobre la familia, ellos mismos, el misterio de la Torre Blanca – y una nueva amenaza aterradora tan poderosa que se conviertan de depredadores en presa.

Ficha técnica

Video trailer de la película

Enlaces de descarga

Rip de Bluray

Descargar Hemlock Grove (2013 – 2015) Serie Completa NF WEB-DL 1080p Latino




Aportes de DPeliculasHDmega la pass es:dpeliculashdmega.org Aportes de CinemaniaHD la pass es:cinemaniahdd.com
Guardado en : Misterio , Netflix , Series

Películas relacionadas

descargar Hemlock Grove (2013 – 2015) Serie Completa NF WEB-DL 1080p Latino WEBDL 1080p gratis, Hemlock Grove (2013 – 2015) Serie Completa NF WEB-DL 1080p Latino WEBDL mega 1 link, Hemlock Grove (2013 – 2015) Serie Completa NF WEB-DL 1080p Latino WEBDL serie completa, descargar Hemlock Grove (2013 – 2015) Serie Completa NF WEB-DL 1080p Latino WEBDL gratis en mega.

Hemlock Grove (2013 – 2015) Serie Completa NF WEB-DL 1080p Latino pelicula full hd, Hemlock Grove (2013 – 2015) Serie Completa NF WEB-DL 1080p Latino mega latino, Hemlock Grove (2013 – 2015) Serie Completa NF WEB-DL 1080p Latino 4k latino, Hemlock Grove (2013 – 2015) Serie Completa NF WEB-DL 1080p Latino pelicula completa, Hemlock Grove (2013 – 2015) Serie Completa NF WEB-DL 1080p Latino descargar gratis, descargar Hemlock Grove (2013 – 2015) Serie Completa NF WEB-DL 1080p Latino pelicula latino, Hemlock Grove (2013 – 2015) Serie Completa NF WEB-DL 1080p Latino 1 link mega, Hemlock Grove (2013 – 2015) Serie Completa NF WEB-DL 1080p Latino 1 link google drive, Hemlock Grove (2013 – 2015) Serie Completa NF WEB-DL 1080p Latino hd 1080p latino.
Comentarios 0