×

¿Problemas para descargar con Mozilla, EDGE? Deshabilita la opción "Abrir vinculos en una pestaña nueva" tal como lo muestra ésta imagen.

Hellboy (2019) REMUX 1080p Latino

1.511 vistas

Información de Hellboy (2019) REMUX 1080p Latino

Datos de la película

  • Calidad: Full 1080p
  • Audio: Se especifica abajo de la Sinopsis
  • Subtitulos: Español Latino PGS - Ingles PGS
  • Resolución: 1920x1080p
  • Formato: MKV
  • Codec: H.264
  • Encoder: CinefiloCool
  • Mediainfo: Clic para Mostrar Datos Ver
  • Hellboy (2019) REMUX 1080p Latino-CMHDD.mkv
    Format                      : Matroska
    Format version              : Version 4
    File size                   : 29.4 GiB
    Duration                    : 2 h 1 min
    Overall bit rate mode       : Variable
    Overall bit rate            : 34.8 Mb/s
    Movie name                  : Hellboy (2019) CinemaniaHDD.Net
    Encoded date                : UTC 2023-02-19 21:52:28
    Writing application         : mkvmerge v56.1.0 ('My Friend') 64-bit
    Writing library             : libebml v1.4.2 + libmatroska v1.6.4
    Attachments                 : CINEMANIAHD.png

    Video
    ID                          : 1
    Format                      : AVC
    Format/Info                 : Advanced Video Codec
    Format profile              : High@L4.1
    Format settings             : CABAC / 4 Ref Frames
    Format settings, CABAC      : Yes
    Format settings, Reference  : 4 frames
    Codec ID                    : V_MPEG4/ISO/AVC
    Duration                    : 2 h 1 min
    Bit rate mode               : Variable
    Bit rate                    : 28.3 Mb/s
    Maximum bit rate            : 35.0 Mb/s
    Width                       : 1 920 pixels
    Height                      : 1 080 pixels
    Display aspect ratio        : 16:9
    Frame rate mode             : Constant
    Frame rate                  : 23.976 (24000/1001) FPS
    Color space                 : YUV
    Chroma subsampling          : 4:2:0
    Bit depth                   : 8 bits
    Scan type                   : Progressive
    Bits/(Pixel*Frame)          : 0.569
    Stream size                 : 23.9 GiB (81%)
    Title                       : REMUX HD1080p [CinemaniaHDD]
    Default                     : Yes
    Forced                      : Yes

    Audio #1
    ID                          : 2
    Format                      : AC-3
    Format/Info                 : Audio Coding 3
    Commercial name             : Dolby Digital
    Codec ID                    : A_AC3
    Duration                    : 2 h 1 min
    Bit rate mode               : Constant
    Bit rate                    : 256 kb/s
    Channel(s)                  : 2 channels
    Channel layout              : L R
    Sampling rate               : 48.0 kHz
    Frame rate                  : 31.250 FPS (1536 SPF)
    Compression mode            : Lossy
    Stream size                 : 222 MiB (1%)
    Title                       : Español Latino Imagem-MX [CinemaniaHDD]
    Language                    : Spanish
    Service kind                : Complete Main
    Default                     : Yes
    Forced                      : Yes

    Audio #2
    ID                          : 3
    Format                      : AC-3
    Format/Info                 : Audio Coding 3
    Commercial name             : Dolby Digital
    Codec ID                    : A_AC3
    Duration                    : 2 h 1 min
    Bit rate mode               : Constant
    Bit rate                    : 448 kb/s
    Channel(s)                  : 6 channels
    Channel layout              : L R C LFE Ls Rs
    Sampling rate               : 48.0 kHz
    Frame rate                  : 31.250 FPS (1536 SPF)
    Compression mode            : Lossy
    Stream size                 : 388 MiB (1%)
    Title                       : Español Latino Summit-ARG [CinemaniaHDD]
    Language                    : Spanish
    Service kind                : Complete Main
    Default                     : No
    Forced                      : No

    Audio #3
    ID                          : 4
    Format                      : MLP FBA 16-ch
    Format/Info                 : Meridian Lossless Packing FBA with 16-channel presentation
    Commercial name             : Dolby TrueHD with Dolby Atmos
    Codec ID                    : A_TRUEHD
    Duration                    : 2 h 1 min
    Bit rate mode               : Variable
    Bit rate                    : 5 255 kb/s
    Maximum bit rate            : 8 256 kb/s
    Channel(s)                  : 8 channels
    Channel layout              : L R C LFE Ls Rs Lb Rb
    Sampling rate               : 48.0 kHz
    Frame rate                  : 1 200.000 FPS (40 SPF)
    Compression mode            : Lossless
    Stream size                 : 4.44 GiB (15%)
    Title                       : Ingles [CinemaniaHDD]
    Language                    : English
    Default                     : No
    Forced                      : No
    Number of dynamic objects   : 15
    Bed channel count           : 1 channel
    Bed channel configuration   : LFE

    Audio #4
    ID                          : 5
    Format                      : AC-3
    Format/Info                 : Audio Coding 3
    Commercial name             : Dolby Digital
    Format settings             : Dolby Surround EX
    Codec ID                    : A_AC3
    Duration                    : 2 h 1 min
    Bit rate mode               : Constant
    Bit rate                    : 448 kb/s
    Channel(s)                  : 6 channels
    Channel layout              : L R C LFE Ls Rs
    Sampling rate               : 48.0 kHz
    Frame rate                  : 31.250 FPS (1536 SPF)
    Compression mode            : Lossy
    Stream size                 : 388 MiB (1%)
    Title                       : Ingles AC3 [CinemaniaHDD]
    Language                    : English
    Service kind                : Complete Main
    Default                     : No
    Forced                      : No

    Text #1
    ID                          : 6
    Format                      : PGS
    Muxing mode                 : zlib
    Codec ID                    : S_HDMV/PGS
    Codec ID/Info               : Picture based subtitle format used on BDs/HD-DVDs
    Duration                    : 1 h 50 min
    Bit rate                    : 113 b/s
    Count of elements           : 12
    Stream size                 : 91.5 KiB (0%)
    Title                       : Forzados-PGS [CinemaniaHDD]
    Language                    : Spanish
    Default                     : No
    Forced                      : No

    Text #2
    ID                          : 7
    Format                      : PGS
    Muxing mode                 : zlib
    Codec ID                    : S_HDMV/PGS
    Codec ID/Info               : Picture based subtitle format used on BDs/HD-DVDs
    Duration                    : 2 h 0 min
    Bit rate                    : 34.1 kb/s
    Count of elements           : 2600
    Stream size                 : 29.4 MiB (0%)
    Title                       : Español-PGS [CinemaniaHDD]
    Language                    : Spanish
    Default                     : No
    Forced                      : No

    Text #3
    ID                          : 8
    Format                      : PGS
    Muxing mode                 : zlib
    Codec ID                    : S_HDMV/PGS
    Codec ID/Info               : Picture based subtitle format used on BDs/HD-DVDs
    Duration                    : 2 h 0 min
    Bit rate                    : 36.1 kb/s
    Count of elements           : 2726
    Stream size                 : 31.1 MiB (0%)
    Title                       : Ingles-PGS [CinemaniaHDD]
    Language                    : English
    Default                     : No
    Forced                      : No

    Text #4
    ID                          : 9
    Format                      : UTF-8
    Codec ID                    : S_TEXT/UTF8
    Codec ID/Info               : UTF-8 Plain Text
    Duration                    : 1 h 47 min
    Bit rate                    : 0 b/s
    Count of elements           : 17
    Stream size                 : 480 Bytes (0%)
    Title                       : Forzados-SRT [CinemaniaHDD]
    Language                    : Spanish
    Default                     : Yes
    Forced                      : Yes

    Text #5
    ID                          : 10
    Format                      : UTF-8
    Codec ID                    : S_TEXT/UTF8
    Codec ID/Info               : UTF-8 Plain Text
    Duration                    : 2 h 0 min
    Bit rate                    : 59 b/s
    Count of elements           : 1551
    Stream size                 : 52.4 KiB (0%)
    Title                       : Español-SRT [CinemaniaHDD]
    Language                    : Spanish
    Default                     : No
    Forced                      : No

    Menu
    00:00:00.000                : Chapter 01
    00:08:54.284                : Chapter 02
    00:14:41.714                : Chapter 03
    00:22:34.853                : Chapter 04
    00:30:12.602                : Chapter 05
    00:35:48.730                : Chapter 06
    00:43:50.461                : Chapter 07
    00:53:17.611                : Chapter 08
    01:01:09.791                : Chapter 09
    01:09:24.786                : Chapter 10
    01:17:32.606                : Chapter 11
    01:26:07.579                : Chapter 12
    01:28:37.896                : Chapter 13
    01:37:58.456                : Chapter 14
    01:45:49.969                : Chapter 15
    01:51:06.660                : Chapter 16

  • Peso: 29.4 GiB

Sinopsis

Descargar Hellboy (2019) REMUX 1080p Latino. La Agencia para la Investigación y Defensa Paranormal (AIDP) encomienda a Hellboy la tarea de derrotar a un espíritu ancestral: Nimue, conocida como «La Reina de la Sangre». Nimue fue la amante del mismísimo Merlín durante el reinado del Rey Arturo, de él aprendió los hechizos que la llevaron a ser una de las brujas más poderosas… Pero la locura se apoderó de ella y aprisionó al mago para toda la eternidad. Hace siglos consiguieron acabar con esta villana, enterrándola profundamente, pero ha vuelto de entre los muertos con la intención de destruir a la humanidad con su magia negra. Nueva película basada en el cómic «Hellboy» de Mike Mignola, que tendrá calificación R y se desmarcará de los films de Guillermo del Toro.

Audio Español Latino AC3 2.0 Dub Imagem Films MX – AC3 5.1 Dub Summit ARG – Ingles TrueHD 7.1 Bluray
RESUBIDO!!!

Ficha técnica

Video trailer de la película

Enlaces de descarga

Rip de Bluray

Descargar Hellboy (2019) REMUX 1080p Latino




Aportes de DPeliculasHDmega la pass es:dpeliculashdmega.org Aportes de CinemaniaHD la pass es:cinemaniahdd.com Aportes recientes:cinemaniahdd.net

Películas relacionadas

  • Cómo robar un millón (1966) REMUX 1080p Latino-CMHDD

    Cómo robar un millón (1966) REMUX 1080p Latino-CMHDD

    1966
    Cómo robar un millón (1966) REMUX 1080p Latino-CMHDD

    2h 3m 1966

    Descargar Cómo robar un millón (1966) REMUX 1080p Latino-CMHDD. El padre de Nicole, un legendario coleccionista...

    Director: William Wyler

    Género: Comedia

    Actores: Roger Tréville

  • Milagros Inesperados (1999) 1080p Latino-CMHDD

    Milagros Inesperados (1999) 1080p Latino-CMHDD

    1999
    Milagros Inesperados (1999) 1080p Latino-CMHDD

    3h 9m 1999

    Descargar Milagros Inesperados (1999) 1080p Latino-CMHDD. En el sur de los Estados Unidos, en plena Depresión,...

    Director: Susan Malerstein

    Género: Crimen

    Actores: William Sadler

  • Milagros Inesperados (1999) REMUX 1080p Latino-CMHDD

    Milagros Inesperados (1999) REMUX 1080p Latino-CMHDD

    1999
    Milagros Inesperados (1999) REMUX 1080p Latino-CMHDD

    3h 9m 1999

    Descargar Milagros Inesperados (1999) REMUX 1080p Latino-CMHDD. En el sur de los Estados Unidos, en plena...

    Director: Susan Malerstein

    Género: Crimen

    Actores: William Sadler

  • Wanted Man (2024) HD 1080p Latino

    Wanted Man (2024) HD 1080p Latino

    2024
    Wanted Man (2024) HD 1080p Latino

    1h 25m 2024

    Descargar Wanted Man (2024) HD 1080p Latino. Sigue a un oficial de policía que debe recuperar a un testigo...

    Director: Kevin Leslie

    Género: Acción

    Actores: Xzavier Estrada

descargar Hellboy (2019) REMUX 1080p Latino Full 1080p 1080p gratis, Hellboy (2019) REMUX 1080p Latino Full 1080p mega 1 link, Hellboy (2019) REMUX 1080p Latino Full 1080p pelicula completa, descargar Hellboy (2019) REMUX 1080p Latino Full 1080p gratis en mega.

Hellboy (2019) REMUX 1080p Latino pelicula full hd, Hellboy (2019) REMUX 1080p Latino mega latino, Hellboy (2019) REMUX 1080p Latino 4k latino, Hellboy (2019) REMUX 1080p Latino pelicula completa, Hellboy (2019) REMUX 1080p Latino descargar gratis, descargar Hellboy (2019) REMUX 1080p Latino pelicula latino, Hellboy (2019) REMUX 1080p Latino 1 link mega, Hellboy (2019) REMUX 1080p Latino 1 link google drive, Hellboy (2019) REMUX 1080p Latino hd 1080p latino.
Comentarios 0