×

¿Problemas para descargar con Mozilla, EDGE? Deshabilita la opción "Abrir vinculos en una pestaña nueva" tal como lo muestra ésta imagen.

Hellboy (2019) FULL HD 1080p Latino

3.780 vistas

Información de Hellboy (2019) FULL HD 1080p Latino

Datos de la película

  • Calidad: Full 1080p
  • Audio: Se especifica abajo de la Sinopsis
  • Subtitulos: Español Latino PGS - Ingles PGS
  • Resolución: 1920x1080p
  • Formato: MKV
  • Codec: H.264
  • Encoder: CinefiloCool
  • Mediainfo: Clic para Mostrar Datos Ver
  • Hellboy (2019) Full HD 1080p Latino-CMHDD.mkv
    Format                      : Matroska
    Format version              : Version 4
    File size                   : 6.04 GiB
    Duration                    : 2 h 1 min
    Overall bit rate            : 7 139 kb/s
    Movie name                  : Hellboy (2019) CinemaniaHDD.Net
    Encoded date                : UTC 2023-02-19 21:41:23
    Writing application         : mkvmerge v56.1.0 ('My Friend') 64-bit
    Writing library             : libebml v1.4.2 + libmatroska v1.6.4
    Attachments                 : CINEMANIAHD.png

    Video
    ID                          : 1
    Format                      : AVC
    Format/Info                 : Advanced Video Codec
    Format profile              : High@L4.1
    Format settings             : CABAC / 4 Ref Frames
    Format settings, CABAC      : Yes
    Format settings, Reference  : 4 frames
    Codec ID                    : V_MPEG4/ISO/AVC
    Duration                    : 2 h 1 min
    Bit rate                    : 4 888 kb/s
    Width                       : 1 920 pixels
    Height                      : 1 080 pixels
    Display aspect ratio        : 16:9
    Frame rate mode             : Constant
    Frame rate                  : 23.976 (24000/1001) FPS
    Color space                 : YUV
    Chroma subsampling          : 4:2:0
    Bit depth                   : 8 bits
    Scan type                   : Progressive
    Bits/(Pixel*Frame)          : 0.098
    Stream size                 : 4.13 GiB (68%)
    Title                       : Full HD1080p [Bluray]
    Writing library             : x264 core 157 r2935 545de2f
    Encoding settings           : cabac=1 / ref=4 / deblock=1:0:0 / analyse=0x3:0x133 / me=tesa / subme=11 / psy=1 / psy_rd=1.00:0.00 / mixed_ref=1 / me_range=24 / chroma_me=1 / trellis=2 / 8x8dct=1 / cqm=0 / deadzone=21,11 / fast_pskip=0 / chroma_qp_offset=-2 / threads=34 / lookahead_threads=8 / sliced_threads=0 / nr=0 / decimate=1 / interlaced=0 / bluray_compat=0 / constrained_intra=0 / bframes=16 / b_pyramid=2 / b_adapt=2 / b_bias=0 / direct=3 / weightb=1 / open_gop=0 / weightp=2 / keyint=240 / keyint_min=24 / scenecut=40 / intra_refresh=0 / rc_lookahead=60 / rc=crf / mbtree=1 / crf=19.0 / qcomp=0.60 / qpmin=0 / qpmax=69 / qpstep=4 / vbv_maxrate=62500 / vbv_bufsize=78125 / crf_max=0.0 / nal_hrd=none / filler=0 / ip_ratio=1.40 / aq=1:1.00
    Default                     : Yes
    Forced                      : No
    Color range                 : Limited
    Color primaries             : BT.709
    Transfer characteristics    : BT.709
    Matrix coefficients         : BT.709

    Audio #1
    ID                          : 2
    Format                      : AC-3
    Format/Info                 : Audio Coding 3
    Commercial name             : Dolby Digital
    Codec ID                    : A_AC3
    Duration                    : 2 h 1 min
    Bit rate mode               : Constant
    Bit rate                    : 256 kb/s
    Channel(s)                  : 2 channels
    Channel layout              : L R
    Sampling rate               : 48.0 kHz
    Frame rate                  : 31.250 FPS (1536 SPF)
    Compression mode            : Lossy
    Stream size                 : 222 MiB (4%)
    Title                       : Español Latino Imagem-MX [CinemaniaHDD]
    Language                    : Spanish
    Service kind                : Complete Main
    Default                     : Yes
    Forced                      : Yes

    Audio #2
    ID                          : 3
    Format                      : AC-3
    Format/Info                 : Audio Coding 3
    Commercial name             : Dolby Digital
    Codec ID                    : A_AC3
    Duration                    : 2 h 1 min
    Bit rate mode               : Constant
    Bit rate                    : 448 kb/s
    Channel(s)                  : 6 channels
    Channel layout              : L R C LFE Ls Rs
    Sampling rate               : 48.0 kHz
    Frame rate                  : 31.250 FPS (1536 SPF)
    Compression mode            : Lossy
    Stream size                 : 388 MiB (6%)
    Title                       : Español Latino Summit-ARG [CinemaniaHDD]
    Language                    : Spanish
    Service kind                : Complete Main
    Default                     : No
    Forced                      : No

    Audio #3
    ID                          : 4
    Format                      : DTS
    Format/Info                 : Digital Theater Systems
    Codec ID                    : A_DTS
    Duration                    : 2 h 1 min
    Bit rate mode               : Constant
    Bit rate                    : 1 509 kb/s
    Channel(s)                  : 6 channels
    Channel layout              : C L R Ls Rs LFE
    Sampling rate               : 48.0 kHz
    Frame rate                  : 93.750 FPS (512 SPF)
    Bit depth                   : 24 bits
    Compression mode            : Lossy
    Stream size                 : 1.28 GiB (21%)
    Title                       : DTS_5.1_Bluray_Eng
    Language                    : English
    Default                     : No
    Forced                      : No

    Text #1
    ID                          : 5
    Format                      : PGS
    Muxing mode                 : zlib
    Codec ID                    : S_HDMV/PGS
    Codec ID/Info               : Picture based subtitle format used on BDs/HD-DVDs
    Duration                    : 1 h 50 min
    Bit rate                    : 113 b/s
    Count of elements           : 12
    Stream size                 : 91.5 KiB (0%)
    Title                       : Sub_Forzados [PGS]
    Language                    : Spanish
    Default                     : No
    Forced                      : Yes

    Text #2
    ID                          : 6
    Format                      : PGS
    Muxing mode                 : zlib
    Codec ID                    : S_HDMV/PGS
    Codec ID/Info               : Picture based subtitle format used on BDs/HD-DVDs
    Duration                    : 2 h 0 min
    Bit rate                    : 34.1 kb/s
    Count of elements           : 2600
    Stream size                 : 29.4 MiB (0%)
    Title                       : Sub_Esp [PGS]
    Language                    : Spanish
    Default                     : No
    Forced                      : No

    Text #3
    ID                          : 7
    Format                      : PGS
    Muxing mode                 : zlib
    Codec ID                    : S_HDMV/PGS
    Codec ID/Info               : Picture based subtitle format used on BDs/HD-DVDs
    Duration                    : 2 h 0 min
    Bit rate                    : 36.1 kb/s
    Count of elements           : 2726
    Stream size                 : 31.1 MiB (1%)
    Title                       : Sub_Eng [PGS]
    Language                    : English
    Default                     : No
    Forced                      : No

    Text #4
    ID                          : 8
    Format                      : UTF-8
    Codec ID                    : S_TEXT/UTF8
    Codec ID/Info               : UTF-8 Plain Text
    Duration                    : 1 h 47 min
    Bit rate                    : 0 b/s
    Count of elements           : 17
    Stream size                 : 480 Bytes (0%)
    Title                       : Sub_Forzados
    Language                    : Spanish
    Default                     : Yes
    Forced                      : Yes

    Text #5
    ID                          : 9
    Format                      : UTF-8
    Codec ID                    : S_TEXT/UTF8
    Codec ID/Info               : UTF-8 Plain Text
    Duration                    : 2 h 0 min
    Bit rate                    : 59 b/s
    Count of elements           : 1551
    Stream size                 : 52.4 KiB (0%)
    Title                       : Sub_Esp
    Language                    : Spanish
    Default                     : No
    Forced                      : No

    Menu
    00:00:00.000                : :Chapter 1
    00:08:54.284                : :Chapter 2
    00:14:41.798                : :Chapter 3
    00:22:34.854                : :Chapter 4
    00:30:12.644                : :Chapter 5
    00:35:48.730                : :Chapter 6
    00:43:50.503                : :Chapter 7
    00:53:17.695                : :Chapter 8
    01:01:09.875                : :Chapter 9
    01:09:24.786                : :Chapter 10
    01:17:32.690                : :Chapter 11
    01:26:07.663                : :Chapter 12
    01:28:37.896                : :Chapter 13
    01:37:58.456                : :Chapter 14
    01:45:49.969                : :Chapter 15
    01:51:06.660                : :Chapter 16

  • Peso: 6.04 GiB

Sinopsis

Descargar Hellboy (2019) FULL HD 1080p Latino. La Agencia para la Investigación y Defensa Paranormal (AIDP) encomienda a Hellboy la tarea de derrotar a un espíritu ancestral: Nimue, conocida como «La Reina de la Sangre». Nimue fue la amante del mismísimo Merlín durante el reinado del Rey Arturo, de él aprendió los hechizos que la llevaron a ser una de las brujas más poderosas… Pero la locura se apoderó de ella y aprisionó al mago para toda la eternidad. Hace siglos consiguieron acabar con esta villana, enterrándola profundamente, pero ha vuelto de entre los muertos con la intención de destruir a la humanidad con su magia negra. Nueva película basada en el cómic «Hellboy» de Mike Mignola, que tendrá calificación R y se desmarcará de los films de Guillermo del Toro.

Audio Español Latino AC3 2.0 Dub Imagem Films MX – AC3 5.1 Dub Summit ARG – Ingles DTS 5.1 Bluray
RESUBIDO!!!

 

Ficha técnica

Video trailer de la película

Enlaces de descarga

Rip de Bluray

Descargar Hellboy (2019) FULL HD 1080p Latino




Aportes de DPeliculasHDmega la pass es:dpeliculashdmega.org Aportes de CinemaniaHD la pass es:cinemaniahdd.com Aportes recientes:cinemaniahdd.net

Películas relacionadas

descargar Hellboy (2019) FULL HD 1080p Latino Full 1080p 1080p gratis, Hellboy (2019) FULL HD 1080p Latino Full 1080p mega 1 link, Hellboy (2019) FULL HD 1080p Latino Full 1080p pelicula completa, descargar Hellboy (2019) FULL HD 1080p Latino Full 1080p gratis en mega.

Hellboy (2019) FULL HD 1080p Latino pelicula full hd, Hellboy (2019) FULL HD 1080p Latino mega latino, Hellboy (2019) FULL HD 1080p Latino 4k latino, Hellboy (2019) FULL HD 1080p Latino pelicula completa, Hellboy (2019) FULL HD 1080p Latino descargar gratis, descargar Hellboy (2019) FULL HD 1080p Latino pelicula latino, Hellboy (2019) FULL HD 1080p Latino 1 link mega, Hellboy (2019) FULL HD 1080p Latino 1 link google drive, Hellboy (2019) FULL HD 1080p Latino hd 1080p latino.
Comentarios 1