×

¿Problemas para descargar con Mozilla, EDGE? Deshabilita la opción "Abrir vinculos en una pestaña nueva" tal como lo muestra ésta imagen.

Infierno en la Frontera (2019) 1080p Latino

1.685 vistas

Información de Infierno en la Frontera (2019) 1080p Latino

Datos de la película

  • Calidad: 1080p
  • Audio: Español Latino AC3 2.0 iTUNES - Ingles AC3 5.1 BLURAY
  • Subtitulos: Español Latino SRT - Ingles SRT
  • Resolución: 1920x800p
  • Formato: MKV
  • Codec: H.264
  • Encoder: CinefiloCool
  • Mediainfo: Clic para Mostrar Datos Ver
  • Infierno en la Frontera (2019) 1080p Latino-CMHDD.mkv
    Format                      : Matroska
    Format version              : Version 4
    File size                   : 3.16 GiB
    Duration                    : 1 h 50 min
    Overall bit rate            : 4 105 kb/s
    Movie name                  : CinemaniaHDD.Net
    Encoded date                : UTC 2020-02-27 04:11:02
    Writing application         : mkvmerge v42.0.0 ('Overtime') 64-bit
    Writing library             : libebml v1.3.10 + libmatroska v1.5.2
    Attachments                 : CINEMANIAHD.png

    Video
    ID                          : 1
    Format                      : AVC
    Format/Info                 : Advanced Video Codec
    Format profile              : High@L4.1
    Format settings             : CABAC / 5 Ref Frames
    Format settings, CABAC      : Yes
    Format settings, ReFrames   : 5 frames
    Codec ID                    : V_MPEG4/ISO/AVC
    Duration                    : 1 h 50 min
    Bit rate                    : 3 500 kb/s
    Width                       : 1 920 pixels
    Height                      : 800 pixels
    Display aspect ratio        : 2.40:1
    Frame rate mode             : Constant
    Frame rate                  : 23.976 (24000/1001) FPS
    Color space                 : YUV
    Chroma subsampling          : 4:2:0
    Bit depth                   : 8 bits
    Scan type                   : Progressive
    Bits/(Pixel*Frame)          : 0.095
    Stream size                 : 2.61 GiB (83%)
    Title                       : HD1080p [Bluray]
    Writing library             : x264 core 157 r2935 545de2f
    Encoding settings           : cabac=1 / ref=5 / deblock=1:-1:-1 / analyse=0x3:0x113 / me=hex / subme=8 / psy=1 / psy_rd=1.00:0.15 / mixed_ref=1 / me_range=16 / chroma_me=1 / trellis=2 / 8x8dct=1 / cqm=0 / deadzone=21,11 / fast_pskip=1 / chroma_qp_offset=-3 / threads=25 / lookahead_threads=4 / sliced_threads=0 / nr=0 / decimate=1 / interlaced=0 / bluray_compat=0 / constrained_intra=0 / bframes=3 / b_pyramid=2 / b_adapt=1 / b_bias=0 / direct=3 / weightb=1 / open_gop=0 / weightp=2 / keyint=240 / keyint_min=24 / scenecut=40 / intra_refresh=0 / rc_lookahead=50 / rc=abr / mbtree=1 / bitrate=3500 / ratetol=1.0 / qcomp=0.60 / qpmin=0 / qpmax=69 / qpstep=4 / vbv_maxrate=62500 / vbv_bufsize=78125 / nal_hrd=none / filler=0 / ip_ratio=1.40 / aq=1:1.00
    Default                     : Yes
    Forced                      : Yes
    Color range                 : Limited
    Color primaries             : BT.709
    Transfer characteristics    : BT.709
    Matrix coefficients         : BT.709

    Audio #1
    ID                          : 2
    Format                      : AC-3
    Format/Info                 : Audio Coding 3
    Commercial name             : Dolby Digital
    Codec ID                    : A_AC3
    Duration                    : 1 h 50 min
    Bit rate mode               : Constant
    Bit rate                    : 256 kb/s
    Channel(s)                  : 2 channels
    Channel layout              : L R
    Sampling rate               : 48.0 kHz
    Frame rate                  : 31.250 FPS (1536 SPF)
    Bit depth                   : 16 bits
    Compression mode            : Lossy
    Delay relative to video     : -5 ms
    Stream size                 : 202 MiB (6%)
    Title                       : AC3_2.0_Web_Esp
    Language                    : Spanish
    Service kind                : Complete Main
    Default                     : Yes
    Forced                      : Yes

    Audio #2
    ID                          : 3
    Format                      : AC-3
    Format/Info                 : Audio Coding 3
    Commercial name             : Dolby Digital
    Codec ID                    : A_AC3
    Duration                    : 1 h 50 min
    Bit rate mode               : Constant
    Bit rate                    : 448 kb/s
    Channel(s)                  : 6 channels
    Channel layout              : L R C LFE Ls Rs
    Sampling rate               : 48.0 kHz
    Frame rate                  : 31.250 FPS (1536 SPF)
    Bit depth                   : 16 bits
    Compression mode            : Lossy
    Delay relative to video     : -5 ms
    Stream size                 : 353 MiB (11%)
    Title                       : AC3_5.1_Bluray_Eng
    Language                    : English
    Service kind                : Complete Main
    Default                     : No
    Forced                      : No

    Text #1
    ID                          : 4
    Format                      : UTF-8
    Codec ID                    : S_TEXT/UTF8
    Codec ID/Info               : UTF-8 Plain Text
    Duration                    : 1 h 44 min
    Bit rate                    : 0 b/s
    Count of elements           : 21
    Stream size                 : 714 Bytes (0%)
    Title                       : Sub_Forzados
    Language                    : Spanish
    Default                     : Yes
    Forced                      : Yes

    Text #2
    ID                          : 5
    Format                      : UTF-8
    Codec ID                    : S_TEXT/UTF8
    Codec ID/Info               : UTF-8 Plain Text
    Duration                    : 1 h 45 min
    Bit rate                    : 48 b/s
    Count of elements           : 1227
    Stream size                 : 37.4 KiB (0%)
    Title                       : Sub_Esp
    Language                    : Spanish
    Default                     : No
    Forced                      : No

    Text #3
    ID                          : 6
    Format                      : UTF-8
    Codec ID                    : S_TEXT/UTF8
    Codec ID/Info               : UTF-8 Plain Text
    Duration                    : 1 h 46 min
    Bit rate                    : 48 b/s
    Count of elements           : 1308
    Stream size                 : 38.0 KiB (0%)
    Title                       : Sub_Eng
    Language                    : English
    Default                     : No
    Forced                      : No

    Menu
    00:00:00.000                : en:Chapter 01
    00:08:13.493                : en:Chapter 02
    00:15:53.160                : en:Chapter 03
    00:23:35.747                : en:Chapter 04
    00:29:46.493                : en:Chapter 05
    00:37:18.569                : en:Chapter 06
    00:45:01.365                : en:Chapter 07
    00:51:09.816                : en:Chapter 08
    00:56:15.789                : en:Chapter 09
    01:03:42.777                : en:Chapter 10
    01:09:19.321                : en:Chapter 11
    01:15:04.917                : en:Chapter 12
    01:20:21.650                : en:Chapter 13
    01:26:46.201                : en:Chapter 14
    01:34:04.805                : en:Chapter 15
    01:41:10.189                : en:Chapter 16

  • Peso: 3.16 GiB

Sinopsis

Descargar Infierno en la Frontera (2019) 1080p Latino. Este western épico y lleno de acción cuenta la increíble historia real de Bass Reeves, el primer mariscal negro del Salvaje Oeste. Habiendo escapado de la esclavitud después de la Guerra Civil, llega a Arkansas buscando trabajo con la ley. Para demostrar su valía, debe perseguir a un forajido mortal con la ayuda de un oficial canoso. Mientras persigue al criminal más profundamente en la Nación Cherokee, Reeves no solo debe esquivar las balas, sino también una severa discriminación con la esperanza de ganar su estrella, y cimentar su lugar como una leyenda del vaquero.

Ficha técnica

  • Titulo original: Hell on the Border
  • Fecha de lanzamiento: 13-12-2019 (United States of America)
  • Director: Wes Miller
  • Género: HD 1080p, Western

Video trailer de la película

Enlaces de descarga

Rip de Bluray

Descargar Infierno en la Frontera (2019) 1080p Latino




Aportes de DPeliculasHDmega la pass es:dpeliculashdmega.org Aportes de CinemaniaHD la pass es:cinemaniahdd.com
Guardado en : HD 1080p , Western

Películas relacionadas

  • Jaula Mental (2022) HD 1080p Latino

    Jaula Mental (2022) HD 1080p Latino

    2022
    Jaula Mental (2022) HD 1080p Latino

    1h 47m 2022

    Descargar Jaula Mental (2022) HD 1080p Latino. Cuando un asesino que imita otros crímenes comienza a...

    Director: Mauro Borrelli

    Género: Crimen

    Actores: Victoria Fox

  • Transfusion (2023) HD 1080p Latino

    Transfusion (2023) HD 1080p Latino

    2023
    Transfusion (2023) HD 1080p Latino

    1h 45m 2023

    Descargar Transfusion (2023) HD 1080p Latino. Un antiguo agente de las Fuerzas Especiales se ve empujado...

    Director: Matt Nable

    Género: Crimen

    Actores: Trystan Go

  • Gladiador (2000) EXTENDED CUT 1080p Latino

    Gladiador (2000) EXTENDED CUT 1080p Latino

    2000
    Gladiador (2000) EXTENDED CUT 1080p Latino

    2h 35m 2000

    Gladiador (2000) EXTENDED CUT 1080p Latino. Máximo, General de las Legiones Romanas, es querido por...

    Director: Ridley Scott

    Género: Acción

    Actores: Tony Curran

  • El discurso del Rey (2010) 1080p Latino

    El discurso del Rey (2010) 1080p Latino

    2010
    El discurso del Rey (2010) 1080p Latino

    1h 58m 2010

    Descargar El discurso del Rey (2010) 1080p Latino. El duque de York se convirtió en rey de Gran Bretaña...

    Director: Tom Hooper

    Género: Drama

    Actores: Tony Earnshaw

  • Detective Knight: Redencion (2022) HD 1080p Latino

    Detective Knight: Redencion (2022) HD 1080p Latino

    2022
    Detective Knight: Redencion (2022) HD 1080p Latino

    1h 33m 2022

    Descargar Detective Knight: Redencion (2022) HD 1080p Latino. El detective James Knight se encuentra...

    Director: Edward Drake

    Género: Acción

    Actores: Paul Johansson

descargar Infierno en la Frontera (2019) 1080p Latino 1080p 1080p gratis, Infierno en la Frontera (2019) 1080p Latino 1080p mega 1 link, Infierno en la Frontera (2019) 1080p Latino 1080p pelicula completa, descargar Infierno en la Frontera (2019) 1080p Latino 1080p gratis en mega.

Infierno en la Frontera (2019) 1080p Latino pelicula full hd, Infierno en la Frontera (2019) 1080p Latino mega latino, Infierno en la Frontera (2019) 1080p Latino 4k latino, Infierno en la Frontera (2019) 1080p Latino pelicula completa, Infierno en la Frontera (2019) 1080p Latino descargar gratis, descargar Infierno en la Frontera (2019) 1080p Latino pelicula latino, Infierno en la Frontera (2019) 1080p Latino 1 link mega, Infierno en la Frontera (2019) 1080p Latino 1 link google drive, Infierno en la Frontera (2019) 1080p Latino hd 1080p latino.
Comentarios 0