Hell Fest (2018) HD 1080p Latino

1.354 vistas
1 estrella2 estrellas3 estrellas4 estrellas5 estrellas (1 votos, promedio: 1,00 de 5)
Cargando…

Información de Hell Fest (2018) HD 1080p Latino

Datos de la película

  • Calidad: 1080p
  • Audio: Español Latino AC3 5.1 BLURAY - Ingles AC3 5.1 BLURAY
  • Subtitulos: Español Latino SRT
  • Resolución: 1920x1036
  • Formato: MKV
  • Codec: H.264
  • Encoder: Cinefilocool
  • Mediainfo: Clic para Mostrar Datos Ver
  • Hell Fest (2018) HD 1080p Latino.mkv
    Format                      : Matroska
    Format version              : Version 4
    File size                   : 2.63 GiB
    Duration                    : 1 h 28 min
    Overall bit rate            : 4 235 kb/s
    Movie name                  : Cinemaniahdd.net
    Encoded date                : UTC 2019-01-01 01:21:55 / UTC 2018-12-29T01:59:50Z
    Writing application         : mkvmerge v29.0.0 ('Like It Or Not') 64-bit
    Writing library             : libebml v1.3.6 + libmatroska v1.4.9 / Lavf57.7.2

    Video
    ID                          : 1
    Format                      : AVC
    Format/Info                 : Advanced Video Codec
    Format profile              : [email protected]
    Format settings             : CABAC / 4 Ref Frames
    Format settings, CABAC      : Yes
    Format settings, ReFrames   : 4 frames
    Codec ID                    : V_MPEG4/ISO/AVC
    Duration                    : 1 h 28 min
    Bit rate                    : 3 500 kb/s
    Width                       : 1 920 pixels
    Height                      : 1 036 pixels
    Display aspect ratio        : 1.85:1
    Frame rate mode             : Constant
    Frame rate                  : 23.976 (24000/1001) FPS
    Color space                 : YUV
    Chroma subsampling          : 4:2:0
    Bit depth                   : 8 bits
    Scan type                   : Progressive
    Bits/(Pixel*Frame)          : 0.073
    Stream size                 : 2.07 GiB (79%)
    Writing library             : x264 core 155 r2901 7d0ff22
    Encoding settings           : cabac=1 / ref=4 / deblock=1:0:0 / analyse=0x3:0x113 / me=hex / subme=8 / psy=1 / psy_rd=1.00:0.00 / mixed_ref=1 / me_range=16 / chroma_me=1 / trellis=2 / 8x8dct=1 / cqm=0 / deadzone=21,11 / fast_pskip=1 / chroma_qp_offset=-2 / threads=32 / lookahead_threads=5 / sliced_threads=0 / nr=0 / decimate=1 / interlaced=0 / bluray_compat=0 / constrained_intra=0 / bframes=3 / b_pyramid=2 / b_adapt=1 / b_bias=0 / direct=3 / weightb=1 / open_gop=0 / weightp=2 / keyint=240 / keyint_min=24 / scenecut=40 / intra_refresh=0 / rc_lookahead=50 / rc=abr / mbtree=1 / bitrate=3500 / ratetol=1.0 / qcomp=0.60 / qpmin=0 / qpmax=69 / qpstep=4 / vbv_maxrate=62500 / vbv_bufsize=78125 / nal_hrd=none / filler=0 / ip_ratio=1.40 / aq=1:1.00
    Default                     : Yes
    Forced                      : No
    Color range                 : Limited
    Color primaries             : BT.709
    Transfer characteristics    : BT.709
    Matrix coefficients         : BT.709

    Audio #1
    ID                          : 2
    Format                      : AC-3
    Format/Info                 : Audio Coding 3
    Commercial name             : Dolby Digital
    Codec ID                    : A_AC3
    Duration                    : 1 h 28 min
    Bit rate mode               : Constant
    Bit rate                    : 448 kb/s
    Channel(s)                  : 6 channels
    Channel layout              : L R C LFE Ls Rs
    Sampling rate               : 48.0 kHz
    Frame rate                  : 31.250 FPS (1536 SPF)
    Bit depth                   : 16 bits
    Compression mode            : Lossy
    Delay relative to video     : -5 ms
    Stream size                 : 285 MiB (11%)
    Language                    : Spanish
    Service kind                : Complete Main
    Default                     : Yes
    Forced                      : No

    Audio #2
    ID                          : 3
    Format                      : AC-3
    Format/Info                 : Audio Coding 3
    Commercial name             : Dolby Digital
    Codec ID                    : A_AC3
    Duration                    : 1 h 28 min
    Bit rate mode               : Constant
    Bit rate                    : 448 kb/s
    Channel(s)                  : 6 channels
    Channel layout              : L R C LFE Ls Rs
    Sampling rate               : 48.0 kHz
    Frame rate                  : 31.250 FPS (1536 SPF)
    Bit depth                   : 16 bits
    Compression mode            : Lossy
    Stream size                 : 285 MiB (11%)
    Title                       : Surround
    Language                    : English
    Service kind                : Complete Main
    Default                     : No
    Forced                      : No

    Text
    ID                          : 4
    Format                      : UTF-8
    Codec ID                    : S_TEXT/UTF8
    Codec ID/Info               : UTF-8 Plain Text
    Duration                    : 1 h 23 min
    Bit rate                    : 50 b/s
    Count of elements           : 1133
    Stream size                 : 30.8 KiB (0%)
    Default                     : Yes
    Forced                      : No

    Menu
    00:00:00.000                : :00:00:00.000
    00:04:28.977                : :00:04:28.977
    00:12:09.979                : :00:12:09.979
    00:15:44.026                : :00:15:44.026
    00:22:44.029                : :00:22:44.029
    00:28:22.242                : :00:28:22.242
    00:35:17.365                : :00:35:17.365
    00:40:37.226                : :00:40:37.226
    00:43:37.782                : :00:43:37.782
    00:49:16.620                : :00:49:16.620
    00:53:22.408                : :00:53:22.407
    01:00:07.771                : :01:00:07.771
    01:06:43.583                : :01:06:43.583
    01:11:33.456                : :01:11:33.456
    01:16:33.589                : :01:16:33.589
    01:21:53.409                : :01:21:53.32

  • Peso: 2.63 GiB

Sinopsis

Preparándose para celebrar una noche especial de Halloween, Natalie ha determinado asistir a un concierto, acompañada de su amiga de la infancia Brooke, su compañera de cuarto, Taylor, y los tres novios de cada una de las chicas. Aunque el concierto es una opción, salir a un bar o a bailar son otras; sin embargo, una de ellas propone asistir al evento conocido como Hell Fest: juegos diabólicos, una inmesa casa del horror con atracciones mecánicas y laberintos dedicados a la festividad que llegará a su ciudad por primera vez. Cada año, miles de personas asisten a la instalación en diferentes ciudades, pero en esta ocasión, mientras los visitantes juegan, se divierten y admiran la decoración, los disfraces y la sangre falsa, un misterioso asesino ha encontrado su campo de batalla perfecto. Poco a poco, los cadáveres irán apareciendo y el asesino pondrá su atención en Natalie, sus amigas y sus novios, los cuales lucharán una sangrienta batalla para sobrevivir la noche.

Ficha técnica

Video trailer de la película

Enlaces de descarga

Rip de Bluray

Descargar Hell Fest (2018) HD 1080p Latino




Aportes de DPeliculasHDmega la pass es:dpeliculashdmega.org Aportes de CinemaniaHD la pass es:cinemaniahdd.com
Guardado en : HD 1080p , Terror

Películas relacionadas

  • Operacion Overlord (2018) 4K UHD HDR Latino

    2018
    Operacion Overlord (2018) 4K UHD HDR Latino

    5.0 1h 50m 2018

    Descargar Operacion Overlord (2018) 4K UHD HDR Latino, Mega, Google Drive. La víspera del Día D, un...

    Director: Roxanne Cuenca

    Género: 4K HDR

    Actores: Wyatt Russell

  • El último Sharknado: Ya era hora (2018) 1080p Latino

    2018
    El último Sharknado: Ya era hora (2018) 1080p Latino

    3.0 1h 30m 2018

    Todo está perdido, ¿o no? Fin desbloquea el poder de viajar en el tiempo a través de los SHARKNADOS...

    Director: Anthony C. Ferrante

    Género: Acción

    Actores: Vivica A. Fox

  • Aquaman (2018) 1080p Latino

    2018
    Aquaman (2018) 1080p Latino

    4.0 2h 23m 2018

    Un icono durante más de 70 años, Aquaman (Jason Momoa) es el Rey de los Siete Mares. Este reacio gobernante...

    Director: James Wan

    Género: Acción

    Actores: Yahya Abdul-Mateen II

  • El Príncipe Encantador (2018) 1080p Latino

    2018
    El Príncipe Encantador (2018) 1080p Latino

    0.0 1h 30m 2018

    Un joven príncipe con un atractivo irresistible que conquista a todas las mujeres a su paso, dejando...

    Director: Ross Venokur

    Género: Animación

    Actores: Wilmer Valderrama

  • Los Inquilinos (2018) 1080p Latino

    2018
    Los Inquilinos (2018) 1080p Latino

    4.0 1h 28m 2018

    Luzma y Demián, una joven pareja, acaban de mudarse a un antiguo barrio tratando de dejar atrás un...

    Director: Chava Cartas

    Género: Terror

    Actores: Zuria Vega

Comentarios 2
  • junior - 06 enero, 2019

    ultimamente es un dolor de cabeza dice esperar 30 segundos para las enlaces despues pasa los 30 segundos y nada pasa mas de un minuto y sigue igual ,es un molesto no da el aceso favor de cambiar como antes

    • dpelis - 06 enero, 2019

      entonces use la extencion Hola para el navegador chrome. No podemos dejar los enlaces sin publicidad, poque no hay donaciones