Hell Fest (2018) Full HD 1080p Latino

1.956 vistas
1 estrella2 estrellas3 estrellas4 estrellas5 estrellas (3 votos, promedio: 3,67 de 5)
Cargando…

Información de Hell Fest (2018) Full HD 1080p Latino

Datos de la película

  • Calidad: Full 1080p
  • Audio: Español Latino AC3 5.1 BLURAY - DTS-HD Master 7.1 BLURAY
  • Subtitulos: Español PGS - Ingles PGS
  • Resolución: 1920x1080
  • Formato: MKV
  • Codec: H.264
  • Encoder: Chesse92
  • Mediainfo: Clic para Mostrar Datos Ver
  • Hell Fest (2018) Full 1080p Latino.mkv
    Format                      : Matroska
    Format version              : Version 4
    File size                   : 6.44 GiB
    Duration                    : 1 h 28 min
    Overall bit rate mode       : Variable
    Overall bit rate            : 10.4 Mb/s
    Movie name                  : CinemaniaHDD.Net
    Encoded date                : UTC 2019-01-02 03:35:48 / UTC 2019-01-01T02:30:38Z
    Writing application         : mkvmerge v29.0.0 ('Like It Or Not') 64-bit
    Writing library             : libebml v1.3.6 + libmatroska v1.4.9 / Lavf57.7.2

    Video
    ID                          : 1
    Format                      : AVC
    Format/Info                 : Advanced Video Codec
    Format profile              : [email protected]
    Format settings             : CABAC / 4 Ref Frames
    Format settings, CABAC      : Yes
    Format settings, ReFrames   : 4 frames
    Codec ID                    : V_MPEG4/ISO/AVC
    Duration                    : 1 h 28 min
    Bit rate                    : 3 568 kb/s
    Width                       : 1 920 pixels
    Height                      : 1 080 pixels
    Display aspect ratio        : 16:9
    Frame rate mode             : Constant
    Frame rate                  : 23.976 (24000/1001) FPS
    Color space                 : YUV
    Chroma subsampling          : 4:2:0
    Bit depth                   : 8 bits
    Scan type                   : Progressive
    Bits/(Pixel*Frame)          : 0.072
    Stream size                 : 2.21 GiB (34%)
    Title                       : Full HD1080p [Bluray]
    Writing library             : x264 core 155 r2901 7d0ff22
    Encoding settings           : cabac=1 / ref=4 / deblock=1:0:0 / analyse=0x3:0x133 / me=esa / subme=10 / psy=1 / psy_rd=1.00:0.00 / mixed_ref=1 / me_range=24 / chroma_me=1 / trellis=2 / 8x8dct=1 / cqm=0 / deadzone=21,11 / fast_pskip=1 / chroma_qp_offset=-2 / threads=34 / lookahead_threads=5 / sliced_threads=0 / nr=0 / decimate=1 / interlaced=0 / bluray_compat=0 / constrained_intra=0 / bframes=8 / b_pyramid=2 / b_adapt=2 / b_bias=0 / direct=3 / weightb=1 / open_gop=0 / weightp=2 / keyint=240 / keyint_min=24 / scenecut=40 / intra_refresh=0 / rc_lookahead=60 / rc=crf / mbtree=1 / crf=20.0 / qcomp=0.60 / qpmin=0 / qpmax=69 / qpstep=4 / vbv_maxrate=62500 / vbv_bufsize=78125 / crf_max=0.0 / nal_hrd=none / filler=0 / ip_ratio=1.40 / aq=1:1.00
    Default                     : Yes
    Forced                      : No
    Color range                 : Limited
    Color primaries             : BT.709
    Transfer characteristics    : BT.709
    Matrix coefficients         : BT.709

    Audio #1
    ID                          : 2
    Format                      : AC-3
    Format/Info                 : Audio Coding 3
    Commercial name             : Dolby Digital
    Codec ID                    : A_AC3
    Duration                    : 1 h 28 min
    Bit rate mode               : Constant
    Bit rate                    : 448 kb/s
    Channel(s)                  : 6 channels
    Channel layout              : L R C LFE Ls Rs
    Sampling rate               : 48.0 kHz
    Frame rate                  : 31.250 FPS (1536 SPF)
    Bit depth                   : 16 bits
    Compression mode            : Lossy
    Stream size                 : 285 MiB (4%)
    Title                       : AC3_5.1_Bluray_Esp
    Language                    : Spanish
    Service kind                : Complete Main
    Default                     : Yes
    Forced                      : No

    Audio #2
    ID                          : 3
    Format                      : DTS XLL X
    Format/Info                 : Digital Theater Systems
    Commercial name             : DTS-HD Master Audio
    Codec ID                    : A_DTS
    Duration                    : 1 h 28 min
    Bit rate mode               : Variable
    Bit rate                    : 6 330 kb/s
    Channel(s)                  : 8 channels
    Channel(s)_Original         : Object Based
    Channel layout              : Object Based
    Sampling rate               : 48.0 kHz
    Frame rate                  : 93.750 FPS (512 SPF)
    Bit depth                   : 24 bits
    Stream size                 : 3.93 GiB (61%)
    Title                       : DTS-MA_7.1_Bluray_Eng
    Language                    : English
    Default                     : No
    Forced                      : No

    Text #1
    ID                          : 4
    Format                      : PGS
    Muxing mode                 : zlib
    Codec ID                    : S_HDMV/PGS
    Codec ID/Info               : Picture based subtitle format used on BDs/HD-DVDs
    Duration                    : 1 h 23 min
    Bit rate                    : 34.6 kb/s
    Count of elements           : 2282
    Stream size                 : 20.7 MiB (0%)
    Title                       : Sub_Esp [PGS]
    Language                    : Spanish
    Default                     : No
    Forced                      : No

    Text #2
    ID                          : 5
    Format                      : PGS
    Muxing mode                 : zlib
    Codec ID                    : S_HDMV/PGS
    Codec ID/Info               : Picture based subtitle format used on BDs/HD-DVDs
    Duration                    : 1 h 23 min
    Bit rate                    : 51.8 kb/s
    Count of elements           : 2946
    Stream size                 : 31.0 MiB (0%)
    Title                       : Sub_Eng [PGS]
    Language                    : English
    Default                     : No
    Forced                      : No

    Text #3
    ID                          : 6
    Format                      : UTF-8
    Codec ID                    : S_TEXT/UTF8
    Codec ID/Info               : UTF-8 Plain Text
    Duration                    : 1 h 23 min
    Bit rate                    : 50 b/s
    Count of elements           : 1133
    Stream size                 : 30.8 KiB (0%)
    Title                       : Sub_Esp
    Language                    : Spanish
    Default                     : No
    Forced                      : No

    Menu
    00:00:00.000                : :Chapter 1
    00:04:28.977                : :Chapter 2
    00:12:09.979                : :Chapter 3
    00:15:44.026                : :Chapter 4
    00:22:44.029                : :Chapter 5
    00:28:22.242                : :Chapter 6
    00:35:17.407                : :Chapter 7
    00:40:37.268                : :Chapter 8
    00:43:37.824                : :Chapter 9
    00:49:16.662                : :Chapter 10
    00:53:22.449                : :Chapter 11
    01:00:07.813                : :Chapter 12
    01:06:43.625                : :Chapter 13
    01:11:33.498                : :Chapter 14
    01:16:33.672                : :Chapter 15
    01:21:53.409                : :Chapter 16

  • Peso: 6.44 GiB

Sinopsis

Descargar Hell Fest (2018) Full HD 1080p Latino, Mega, Google Drive, Torrent. Un asesino en serie enmascarado convierte un parque de atracciones con temática de terror en su propio patio de recreo personal, aterrorizando a un grupo de amigos mientras que el resto de los visitantes creen que todo es parte del espectáculo.

 

La estudiante universitaria Natalie está visitando a su mejor amiga de la infancia Brooke y a su compañera de cuarto Taylor. Si fuera otra época del año, estas tres amigas y sus novios irían a un concierto o a un bar, pero es Halloween, lo que significa que, como todos los demás, irán al HELL FEST: un inmenso parque de atracciones con juegos y laberintos y que coincide que está en la ciudad. Cada año, miles de personas visitan el HELL FEST para experimentar el miedo en el macabro carnaval de las pesadillas.

 

Pero para un visitante, el HELL FEST no es un parque de atracciones sino un coto de caza. Una oportunidad para matar a la vista de un público embobado, tan sumido en la terrorífica y divertida atmósfera que no se dan cuenta de la horrible realidad que se desarrolla frente a sus ojos. A medida que la cantidad de cadáveres y la excitación frenética de la multitud continúan elevándose, el asesino irá a por Natalie, Brooke, Taylor y sus novios, quienes lucharán para sobrevivir a la noche.

Ficha técnica

Video trailer de la película

Enlaces de descarga

Rip de Bluray

Descargar Hell Fest (2018) Full HD 1080p Latino




Aportes de DPeliculasHDmega la pass es:dpeliculashdmega.org Aportes de CinemaniaHD la pass es:cinemaniahdd.com
Guardado en : FULL 1080p Plateadas , Terror

Películas relacionadas

  • Aquaman (2018) Full HD 1080p Latino

    2018
    Aquaman (2018) Full HD 1080p Latino

    5.0 2h 24m 2018

    Un icono durante más de 70 años, Aquaman (Jason Momoa) es el Rey de los Siete Mares. Este reacio gobernante...

    Director: James Wan

    Género: Acción

    Actores: Yahya Abdul-Mateen II

  • Operacion Overlord (2018) 4K UHD HDR Latino

    2018
    Operacion Overlord (2018) 4K UHD HDR Latino

    5.0 1h 50m 2018

    Descargar Operacion Overlord (2018) 4K UHD HDR Latino, Mega, Google Drive. La víspera del Día D, un...

    Director: Roxanne Cuenca

    Género: 4K HDR

    Actores: Wyatt Russell

  • Juego De Tronos (2017) Temporada 7 Full 1080p Latino

    2017
    Juego De Tronos (2017) Temporada 7 Full 1080p Latino

    4.3 1h 0m 2017

    Juego de Tronos es una serie de televisión de drama y fantasía creada para la HBO por David Benioff...

    Director: David Benioff

    Género: Action & Adventure

    Actores: Sophie Turner

Comentarios 0