×

¿Problemas para descargar con Mozilla, EDGE? Deshabilita la opción "Abrir vinculos en una pestaña nueva" tal como lo muestra ésta imagen.

Heels (2023) Segunda Temporada AMZN WEB-DL 1080p Latino

619 vistas

Información de Heels (2023) Segunda Temporada AMZN WEB-DL 1080p Latino

Datos de la película

  • Calidad: 1080p
  • Audio: Español Latino AC3 5.1 WEB-DL - Ingles AC3 5.1 WEB-DL
  • Subtitulos: Español Latino SRT - Ingles SRT
  • Resolución: 1920x1080
  • Formato: MKV
  • Codec: H.264
  • Encoder: cinemaniahdd
  • Mediainfo: Clic para Mostrar Datos Ver
  • Heels T02E01 AMZN WEB-DL 1080p Latino [CNMNHDD].mkv
    Format                      : Matroska
    Format version              : Version 4
    File size                   : 4.66 GiB
    Duration                    : 59 min 53 s
    Overall bit rate            : 11.1 Mb/s
    Movie name                  : Heels S02E01 - Ten-Bell Salute [1080p] - CinemaniaHDD.Net
    Encoded date                : UTC 2023-07-28 23:29:42
    Writing application         : mkvmerge v56.1.0 ('My Friend') 64-bit
    Writing library             : libebml v1.4.2 + libmatroska v1.6.4

    Video
    ID                          : 1
    Format                      : AVC
    Format/Info                 : Advanced Video Codec
    Format profile              : High@L4
    Format settings             : CABAC / 4 Ref Frames
    Format settings, CABAC      : Yes
    Format settings, Reference  : 4 frames
    Codec ID                    : V_MPEG4/ISO/AVC
    Duration                    : 59 min 53 s
    Bit rate mode               : Constant
    Bit rate                    : 9 214 kb/s
    Nominal bit rate            : 10 000 kb/s
    Width                       : 1 920 pixels
    Height                      : 1 080 pixels
    Display aspect ratio        : 16:9
    Frame rate mode             : Constant
    Frame rate                  : 23.976 (24000/1001) FPS
    Color space                 : YUV
    Chroma subsampling          : 4:2:0
    Bit depth                   : 8 bits
    Scan type                   : Progressive
    Bits/(Pixel*Frame)          : 0.185
    Stream size                 : 3.85 GiB (83%)
    Title                       : CinemaniaHDD
    Default                     : Yes
    Forced                      : No
    Color range                 : Limited
    Color primaries             : BT.709
    Transfer characteristics    : BT.709
    Matrix coefficients         : BT.709

    Audio #1
    ID                          : 2
    Format                      : AC-3
    Format/Info                 : Audio Coding 3
    Commercial name             : Dolby Digital
    Codec ID                    : A_AC3
    Duration                    : 59 min 53 s
    Bit rate mode               : Constant
    Bit rate                    : 640 kb/s
    Channel(s)                  : 6 channels
    Channel layout              : L R C LFE Ls Rs
    Sampling rate               : 48.0 kHz
    Frame rate                  : 31.250 FPS (1536 SPF)
    Compression mode            : Lossy
    Stream size                 : 274 MiB (6%)
    Title                       : Español Latino [CinemaniaHDD]
    Language                    : Spanish
    Service kind                : Complete Main
    Default                     : Yes
    Forced                      : No

    Audio #2
    ID                          : 3
    Format                      : E-AC-3
    Format/Info                 : Enhanced AC-3
    Commercial name             : Dolby Digital Plus
    Codec ID                    : A_EAC3
    Duration                    : 59 min 53 s
    Bit rate mode               : Constant
    Bit rate                    : 640 kb/s
    Channel(s)                  : 6 channels
    Channel layout              : L R C LFE Ls Rs
    Sampling rate               : 48.0 kHz
    Frame rate                  : 31.250 FPS (1536 SPF)
    Compression mode            : Lossy
    Stream size                 : 274 MiB (6%)
    Title                       : Español Latino / E-AC3 [CinemaniaHDD]
    Language                    : Spanish
    Service kind                : Complete Main
    Default                     : No
    Forced                      : No

    Audio #3
    ID                          : 4
    Format                      : E-AC-3
    Format/Info                 : Enhanced AC-3
    Commercial name             : Dolby Digital Plus
    Codec ID                    : A_EAC3
    Duration                    : 59 min 53 s
    Bit rate mode               : Constant
    Bit rate                    : 640 kb/s
    Channel(s)                  : 6 channels
    Channel layout              : L R C LFE Ls Rs
    Sampling rate               : 48.0 kHz
    Frame rate                  : 31.250 FPS (1536 SPF)
    Compression mode            : Lossy
    Stream size                 : 274 MiB (6%)
    Title                       : Inglés [CinemaniaHDD]
    Language                    : English
    Service kind                : Complete Main
    Default                     : No
    Forced                      : No

    Text #1
    ID                          : 5
    Format                      : UTF-8
    Codec ID                    : S_TEXT/UTF8
    Codec ID/Info               : UTF-8 Plain Text
    Duration                    : 59 min 11 s
    Bit rate                    : 75 b/s
    Count of elements           : 1120
    Stream size                 : 32.7 KiB (0%)
    Title                       : Español Latino [CinemaniaHDD]
    Language                    : Spanish
    Default                     : No
    Forced                      : No

    Text #2
    ID                          : 6
    Format                      : UTF-8
    Codec ID                    : S_TEXT/UTF8
    Codec ID/Info               : UTF-8 Plain Text
    Duration                    : 58 min 24 s
    Bit rate                    : 72 b/s
    Count of elements           : 1052
    Stream size                 : 30.8 KiB (0%)
    Title                       : Inglés [CinemaniaHDD]
    Language                    : English
    Default                     : No
    Forced                      : No

     

     

  • Peso: 4.66 GiB Aprox ---- 25 GiB in 8 Chapters.

Sinopsis

En una comunidad muy unida de Georgia, una promoción de lucha de propiedad familiar encuentra a dos hermanos y rivales en guerra por el legado de su difunto padre. En el ring, alguien debe jugar al tipo bueno y alguien debe jugar a su némesis, el talón. Pero en el mundo real, esos personajes pueden ser difíciles de cumplir (e igual de difíciles de dejar atrás).

Ficha técnica

Video trailer de la película

Enlaces de descarga

Rip de Bluray

Descargar Heels (2023) Segunda Temporada AMZN WEB-DL 1080p Latino




Aportes de DPeliculasHDmega la pass es:dpeliculashdmega.org Aportes de CinemaniaHD la pass es:cinemaniahdd.com Aportes recientes:cinemaniahdd.net
Guardado en : Action & Adventure , Drama , Series

Películas relacionadas

descargar Heels (2023) Segunda Temporada AMZN WEB-DL 1080p Latino 1080p 1080p gratis, Heels (2023) Segunda Temporada AMZN WEB-DL 1080p Latino 1080p mega 1 link, Heels (2023) Segunda Temporada AMZN WEB-DL 1080p Latino 1080p serie completa, descargar Heels (2023) Segunda Temporada AMZN WEB-DL 1080p Latino 1080p gratis en mega.

Heels (2023) Segunda Temporada AMZN WEB-DL 1080p Latino pelicula full hd, Heels (2023) Segunda Temporada AMZN WEB-DL 1080p Latino mega latino, Heels (2023) Segunda Temporada AMZN WEB-DL 1080p Latino 4k latino, Heels (2023) Segunda Temporada AMZN WEB-DL 1080p Latino pelicula completa, Heels (2023) Segunda Temporada AMZN WEB-DL 1080p Latino descargar gratis, descargar Heels (2023) Segunda Temporada AMZN WEB-DL 1080p Latino pelicula latino, Heels (2023) Segunda Temporada AMZN WEB-DL 1080p Latino 1 link mega, Heels (2023) Segunda Temporada AMZN WEB-DL 1080p Latino 1 link google drive, Heels (2023) Segunda Temporada AMZN WEB-DL 1080p Latino hd 1080p latino.
Comentarios 1