Hechiceras (1999) Segunda Temporada REMUX 1080p Latino – CMHDD

61 vistas
1 estrella2 estrellas3 estrellas4 estrellas5 estrellas (Ninguna valoración todavía)
Cargando...

Información de Hechiceras (1999) Segunda Temporada REMUX 1080p Latino – CMHDD

Datos de la película

  • Calidad: Full 1080p
  • Audio: Se especifica abajo de la Sinopsis
  • Subtitulos: Español Latino SRT
  • Resolución: 1920x1080p
  • Formato: MKV
  • Codec: H.264
  • Encoder: Dracarys
  • Mediainfo: Clic para Mostrar Datos Ver
  • Format                      : Matroska
    Format version              : Version 4
    File size                   : 8.17 GiB
    Duration                    : 43 min 9 s
    Overall bit rate mode       : Variable
    Overall bit rate            : 27.1 Mb/s
    Movie name                  : Hechiceras (1999) [S02E01] REMUX 1080p Latino - CMHDD
    Encoded date                : UTC 2020-08-02 07:44:30
    Writing application         : mkvmerge v46.0.0 ('No Deeper Escape') 64-bit
    Writing library             : libebml v1.3.10 + libmatroska v1.5.2

    Video
    ID                          : 1
    Format                      : AVC
    Format/Info                 : Advanced Video Codec
    Format profile              : High@L4.1
    Format settings             : CABAC / 2 Ref Frames
    Format settings, CABAC      : Yes
    Format settings, Reference  : 2 frames
    Format settings, GOP        : M=1, N=5
    Codec ID                    : V_MPEG4/ISO/AVC
    Duration                    : 43 min 9 s
    Bit rate mode               : Variable
    Bit rate                    : 24.8 Mb/s
    Maximum bit rate            : 38.2 Mb/s
    Width                       : 1 920 pixels
    Height                      : 1 080 pixels
    Display aspect ratio        : 16:9
    Frame rate mode             : Constant
    Frame rate                  : 23.976 (24000/1001) FPS
    Color space                 : YUV
    Chroma subsampling          : 4:2:0
    Bit depth                   : 8 bits
    Scan type                   : Progressive
    Bits/(Pixel*Frame)          : 0.499
    Stream size                 : 7.48 GiB (92%)
    Language                    : English
    Default                     : No
    Forced                      : No

    Audio #1
    ID                          : 2
    Format                      : AC-3
    Format/Info                 : Audio Coding 3
    Commercial name             : Dolby Digital
    Codec ID                    : A_AC3
    Duration                    : 43 min 7 s
    Bit rate mode               : Constant
    Bit rate                    : 192 kb/s
    Channel(s)                  : 2 channels
    Channel layout              : L R
    Sampling rate               : 44.1 kHz
    Frame rate                  : 28.711 FPS (1536 SPF)
    Compression mode            : Lossy
    Stream size                 : 59.2 MiB (1%)
    Language                    : Spanish
    Service kind                : Complete Main
    Default                     : Yes
    Forced                      : No

    Audio #2
    ID                          : 3
    Format                      : DTS XLL
    Format/Info                 : Digital Theater Systems
    Commercial name             : DTS-HD Master Audio
    Codec ID                    : A_DTS
    Duration                    : 43 min 9 s
    Bit rate mode               : Variable
    Bit rate                    : 2 091 kb/s
    Channel(s)                  : 2 channels
    Channel layout              : L R
    Sampling rate               : 48.0 kHz
    Frame rate                  : 93.750 FPS (512 SPF)
    Bit depth                   : 24 bits
    Compression mode            : Lossless
    Stream size                 : 645 MiB (8%)
    Language                    : English
    Default                     : No
    Forced                      : No

    Text
    ID                          : 4
    Format                      : UTF-8
    Codec ID                    : S_TEXT/UTF8
    Codec ID/Info               : UTF-8 Plain Text
    Duration                    : 42 min 5 s
    Bit rate                    : 88 b/s
    Count of elements           : 625
    Stream size                 : 27.2 KiB (0%)
    Language                    : Spanish
    Default                     : No
    Forced                      : No

    Menu
    00:00:00.000                : en:Chapter 01
    00:04:57.122                : en:Chapter 02
    00:16:18.941                : en:Chapter 03
    00:25:14.804                : en:Chapter 04
    00:34:54.454                : en:Chapter 05
    00:42:27.957                : en:Chapter 06

  • Peso: 167 GiB Total

Sinopsis

Serie de ciencia ficción que sigue el día a día de tres hermanas brujas en su lucha contra demonios, hechiceros y demás fuerzas oscuras y sobrenaturales.

Las hermanas Halliwell no siempre se han llevado bien. Tras la muerte de su madre y el abandono por parte de su padre se criaron junto a su abuela Penny. Sin embargo, cuando se hicieron mayores tuvieron una discusión y acabaron distanciándose. Sin embargo, se verán obligadas a convivir juntas de nuevo tras la muerte de su abuela. Lo que no esperan es que su vida tranquila y corriente desaparezca de un día para otro.

Cuando Phoebe (Alyssa Milano, ‘Mistresses’) encuentra un viejo libro llamado «el Libro de las Sombras» en el desván hace que tanto ella como sus hermanas reciban poderes mágicos. La mayor, Prue (Shannen Doherty, ‘Sensación de vivir. La nueva generación’), puede mover objetos con la mente. Piper (Holly Marie Combs, ‘Pequeñas Mentirosas’) tiene la habilidad de congelar el tiempo. Y Phoebe tiene premoniciones de lo que va a ocurrir en un futuro cercano. Las tres hermanas descubren que en realidad son «las Embrujadas», brujas buenas descendientes de un antiguo linaje de magia, y que su destino es luchar contra el mal para proteger a los inocentes.

Desde ese momento una multitud de hechiceros, demonios y demás criaturas sobrenaturales aparecen en su vida con la intención de asesinarlas y hacerse con sus poderes. Sumidas en un universo oscuro y sobrenatural que no comprenden, tendrán que aprender a olvidar sus rivalidades para aprender a dominar sus poderes y emplearlos en su lucha contra al mal

 

Latino: AC3 2.0  –  Ingles: DTS- HD MA 2.0

Ficha técnica

Video trailer de la película

Enlaces de descarga

Rip de Bluray

Descargar Hechiceras (1999) Segunda Temporada REMUX 1080p Latino – CMHDD




Aportes de DPeliculasHDmega la pass es:dpeliculashdmega.org Aportes de CinemaniaHD la pass es:cinemaniahdd.com
Guardado en : Comedia , Drama , Misterio , Reality

Películas relacionadas

Comentarios 4
  • Jorge - 10 agosto, 2020

    Gracias , muy buena serie ..ojala suban las demas temporadas

  • vexacus - 03 agosto, 2020

    gracias, son los mejores , esperando las demas season en remux

  • JESUS - 03 agosto, 2020

    Buenas tardes Brother. No vas a subir esta serie en 1080p???

    • Dracarys - 03 agosto, 2020

      Pronto…