Hechiceras (1998) Primera Temporada REMUX 1080p Latino – CMHDD

19 vistas
1 estrella2 estrellas3 estrellas4 estrellas5 estrellas (1 votos, promedio: 5,00 de 5)
Cargando…

Información de Hechiceras (1998) Primera Temporada REMUX 1080p Latino – CMHDD

Datos de la película

  • Calidad: Full 1080p
  • Audio: Se especifica abajo de la Sinopsis
  • Subtitulos: Español Latino SRT
  • Resolución: 1920x1080p
  • Formato: MKV
  • Codec: H.264
  • Encoder: Dracarys
  • Mediainfo: Clic para Mostrar Datos Ver
  • Format                      : Matroska
    Format version              : Version 4
    File size                   : 8.05 GiB
    Duration                    : 43 min 30 s
    Overall bit rate mode       : Variable
    Overall bit rate            : 26.5 Mb/s
    Movie name                  : Hechiceras (1998) [S01E01] REMUX 1080p Latino - CMHDD
    Encoded date                : UTC 2020-07-31 02:21:08
    Writing application         : mkvmerge v46.0.0 ('No Deeper Escape') 64-bit
    Writing library             : libebml v1.3.10 + libmatroska v1.5.2

    Video
    ID                          : 1
    Format                      : AVC
    Format/Info                 : Advanced Video Codec
    Format profile              : High@L4.1
    Format settings             : CABAC / 4 Ref Frames
    Format settings, CABAC      : Yes
    Format settings, Reference  : 4 frames
    Codec ID                    : V_MPEG4/ISO/AVC
    Duration                    : 43 min 29 s
    Bit rate mode               : Variable
    Bit rate                    : 26.0 Mb/s
    Maximum bit rate            : 38.0 Mb/s
    Width                       : 1 920 pixels
    Height                      : 1 080 pixels
    Display aspect ratio        : 16:9
    Frame rate mode             : Constant
    Frame rate                  : 23.976 (24000/1001) FPS
    Standard                    : NTSC
    Color space                 : YUV
    Chroma subsampling          : 4:2:0
    Bit depth                   : 8 bits
    Scan type                   : Progressive
    Bits/(Pixel*Frame)          : 0.523
    Stream size                 : 7.90 GiB (98%)
    Default                     : Yes
    Forced                      : No
    Color range                 : Limited
    Color primaries             : BT.709
    Transfer characteristics    : BT.709
    Matrix coefficients         : BT.709

    Audio #1
    ID                          : 2
    Format                      : AC-3
    Format/Info                 : Audio Coding 3
    Commercial name             : Dolby Digital
    Codec ID                    : A_AC3
    Duration                    : 43 min 30 s
    Bit rate mode               : Constant
    Bit rate                    : 320 kb/s
    Channel(s)                  : 2 channels
    Channel layout              : L R
    Sampling rate               : 48.0 kHz
    Frame rate                  : 31.250 FPS (1536 SPF)
    Compression mode            : Lossy
    Stream size                 : 99.6 MiB (1%)
    Language                    : Spanish
    Service kind                : Complete Main
    Default                     : Yes
    Forced                      : No

    Audio #2
    ID                          : 3
    Format                      : AC-3
    Format/Info                 : Audio Coding 3
    Commercial name             : Dolby Digital
    Codec ID                    : A_AC3
    Duration                    : 43 min 30 s
    Bit rate mode               : Constant
    Bit rate                    : 192 kb/s
    Channel(s)                  : 2 channels
    Channel layout              : L R
    Sampling rate               : 48.0 kHz
    Frame rate                  : 31.250 FPS (1536 SPF)
    Compression mode            : Lossy
    Stream size                 : 59.8 MiB (1%)
    Language                    : English
    Service kind                : Complete Main
    Default                     : No
    Forced                      : No

    Text
    ID                          : 4
    Format                      : UTF-8
    Codec ID                    : S_TEXT/UTF8
    Codec ID/Info               : UTF-8 Plain Text
    Duration                    : 42 min 12 s
    Bit rate                    : 76 b/s
    Count of elements           : 618
    Stream size                 : 23.8 KiB (0%)
    Language                    : Spanish
    Default                     : Yes
    Forced                      : No

  • Peso: 184 GiB Total

Sinopsis

Serie de ciencia ficción que sigue el día a día de tres hermanas brujas en su lucha contra demonios, hechiceros y demás fuerzas oscuras y sobrenaturales.

Las hermanas Halliwell no siempre se han llevado bien. Tras la muerte de su madre y el abandono por parte de su padre se criaron junto a su abuela Penny. Sin embargo, cuando se hicieron mayores tuvieron una discusión y acabaron distanciándose. Sin embargo, se verán obligadas a convivir juntas de nuevo tras la muerte de su abuela. Lo que no esperan es que su vida tranquila y corriente desaparezca de un día para otro.

Cuando Phoebe (Alyssa Milano, ‘Mistresses’) encuentra un viejo libro llamado «el Libro de las Sombras» en el desván hace que tanto ella como sus hermanas reciban poderes mágicos. La mayor, Prue (Shannen Doherty, ‘Sensación de vivir. La nueva generación’), puede mover objetos con la mente. Piper (Holly Marie Combs, ‘Pequeñas Mentirosas’) tiene la habilidad de congelar el tiempo. Y Phoebe tiene premoniciones de lo que va a ocurrir en un futuro cercano. Las tres hermanas descubren que en realidad son «las Embrujadas», brujas buenas descendientes de un antiguo linaje de magia, y que su destino es luchar contra el mal para proteger a los inocentes.

Desde ese momento una multitud de hechiceros, demonios y demás criaturas sobrenaturales aparecen en su vida con la intención de asesinarlas y hacerse con sus poderes. Sumidas en un universo oscuro y sobrenatural que no comprenden, tendrán que aprender a olvidar sus rivalidades para aprender a dominar sus poderes y emplearlos en su lucha contra al mal

 

Latino: AC3 2.0  –  Ingles: AC3 2.0

Ficha técnica

Video trailer de la película

Enlaces de descarga

Rip de Bluray

Descargar Hechiceras (1998) Primera Temporada REMUX 1080p Latino – CMHDD




Aportes de DPeliculasHDmega la pass es:dpeliculashdmega.org Aportes de CinemaniaHD la pass es:cinemaniahdd.com
Guardado en : Comedia , Drama , Misterio , Remux

Películas relacionadas

  • The Hater (2020) HD 1080p Latino

    The Hater (2020) HD 1080p Latino

    2020
    The Hater (2020) HD 1080p Latino

    0.0 2h 15m 2020

    Descargar The Hater (2020) HD 1080p Latino. Narra las manipulaciones del maquiavélico Tomek para conseguir...

    Director: Jan Komasa

    Género: Drama

    Actores: Vanessa Aleksander

  • The Hater (2020) PLACEBO Full HD 1080p Latino

    The Hater (2020) PLACEBO Full HD 1080p Latino

    2020
    The Hater (2020) PLACEBO Full HD 1080p Latino

    0.0 2h 15m 2020

    Descargar The Hater (2020) Placebo Full HD 1080p Latino. Narra las manipulaciones del maquiavélico Tomek...

    Director: Jan Komasa

    Género: Drama

    Actores: Vanessa Aleksander

  • The Hater (2020) REMUX 1080p Latino

    The Hater (2020) REMUX 1080p Latino

    2020
    The Hater (2020) REMUX 1080p Latino

    0.0 2h 15m 2020

    Descargar The Hater (2020) REMUX 1080p Latino. Narra las manipulaciones del maquiavélico Tomek para...

    Director: Jan Komasa

    Género: Drama

    Actores: Vanessa Aleksander

  • El Fanático (2019) REMUX 1080p Latino

    El Fanático (2019) REMUX 1080p Latino

    2019
    El Fanático (2019) REMUX 1080p Latino

    0.0 1h 28m 2019

    Descargar El Fanático (2019) REMUX 1080p Latino. Moose es un fanático del cine de acción que vive...

    Director: Kimberley Roper

    Género: Crimen

    Actores: Rob Wolfe

Comentarios 5
  • Rafael - 03 agosto, 2020

    Vas a subir las temporada en caratula Gris ???

    • Dracarys - 03 agosto, 2020

      pronto

  • Jorge - 02 agosto, 2020

    Excelente, estaba buscando esta serie , gracias

  • fandelhechizo - 01 agosto, 2020

    Che que genial, justo la serie que buscaba! y ademas en remux!

  • Dafne - 01 agosto, 2020

    😍 muchas gracias😍