×

¿Problemas para descargar con Mozilla, EDGE? Deshabilita la opción "Abrir vinculos en una pestaña nueva" tal como lo muestra ésta imagen.

Heaven (2019) AMZN WEB-DL 1080p Latino

913 vistas

Información de Heaven (2019) AMZN WEB-DL 1080p Latino

Datos de la película

  • Calidad: WEBDL
  • Audio: Español Latino AC3 2.0 Capturado- Ingles AC3 5.1 AMAZON
  • Subtitulos: Ingles SRT
  • Resolución: 1920x1080
  • Formato: MKV
  • Codec: H.264
  • Encoder: cinemaniahdd
  • Mediainfo: Clic para Mostrar Datos Ver
  • Heaven (2019) AMZN WEB-DL 1080p Latino.mkv
    Format                      : Matroska
    Format version              : Version 4
    File size                   : 5.54 GiB
    Duration                    : 1 h 27 min
    Overall bit rate            : 9 034 kb/s
    Movie name                  : Heaven (2019) - CinemaniaHDD.Net
    Encoded date                : UTC 2019-10-09 03:57:31
    Writing application         : mkvmerge v38.0.0 ('The Silent Type') 64-bit
    Writing library             : libebml v1.3.9 + libmatroska v1.5.2

    Video
    ID                          : 1
    Format                      : AVC
    Format/Info                 : Advanced Video Codec
    Format profile              : High@L4
    Format settings             : CABAC / 4 Ref Frames
    Format settings, CABAC      : Yes
    Format settings, ReFrames   : 4 frames
    Codec ID                    : V_MPEG4/ISO/AVC
    Duration                    : 1 h 27 min
    Bit rate mode               : Constant
    Bit rate                    : 8 552 kb/s
    Nominal bit rate            : 10 000 kb/s
    Width                       : 1 920 pixels
    Height                      : 1 080 pixels
    Display aspect ratio        : 16:9
    Frame rate mode             : Constant
    Frame rate                  : 23.976 (24000/1001) FPS
    Color space                 : YUV
    Chroma subsampling          : 4:2:0
    Bit depth                   : 8 bits
    Scan type                   : Progressive
    Bits/(Pixel*Frame)          : 0.172
    Stream size                 : 5.24 GiB (95%)
    Title                       : CinemaniaHDD
    Default                     : Yes
    Forced                      : No
    Color range                 : Limited
    Color primaries             : BT.709
    Transfer characteristics    : BT.709
    Matrix coefficients         : BT.709

    Audio #1
    ID                          : 2
    Format                      : AC-3
    Format/Info                 : Audio Coding 3
    Commercial name             : Dolby Digital
    Codec ID                    : A_AC3
    Duration                    : 1 h 27 min
    Bit rate mode               : Constant
    Bit rate                    : 256 kb/s
    Channel(s)                  : 2 channels
    Channel layout              : L R
    Sampling rate               : 48.0 kHz
    Frame rate                  : 31.250 FPS (1536 SPF)
    Bit depth                   : 16 bits
    Compression mode            : Lossy
    Stream size                 : 161 MiB (3%)
    Title                       : Español latino [CinemaniaHDD]
    Language                    : Spanish
    Service kind                : Complete Main
    Default                     : Yes
    Forced                      : No

    Audio #2
    ID                          : 3
    Format                      : E-AC-3
    Format/Info                 : Enhanced AC-3
    Commercial name             : Dolby Digital Plus
    Codec ID                    : A_EAC3
    Duration                    : 1 h 27 min
    Bit rate mode               : Constant
    Bit rate                    : 224 kb/s
    Channel(s)                  : 2 channels
    Channel layout              : L R
    Sampling rate               : 48.0 kHz
    Frame rate                  : 31.250 FPS (1536 SPF)
    Compression mode            : Lossy
    Stream size                 : 141 MiB (2%)
    Title                       : Inglés [CinemaniaHDD]
    Language                    : English
    Service kind                : Complete Main
    Default                     : No
    Forced                      : No

    Text
    ID                          : 4
    Format                      : UTF-8
    Codec ID                    : S_TEXT/UTF8
    Codec ID/Info               : UTF-8 Plain Text
    Duration                    : 1 h 26 min
    Bit rate                    : 60 b/s
    Count of elements           : 1631
    Stream size                 : 38.1 KiB (0%)
    Title                       : Inglés [CinemaniaHDD]
    Language                    : English
    Default                     : No
    Forced                      : No

     

  • Peso: 5.54 GiB

Sinopsis

Basado en la novela de V.C. Andrews .De Todas las personas pobres que vivían en las colinas de las montañas de Virginia Occidental, los Casteels fueron considerados los más bajos. Sin embargo, la hija mayor, Heaven Leigh Casteel, seguía siendo la chica más bonita e inteligente de los bosques, a pesar de su ropa y su cara sucia. Heaven animó a sus cuatro hermanos menores a aferrarse a su orgullo y la esperanza de un día poder escapar de su pobreza y mostrarle al mundo lo decente y talentosos que eran.

Ficha técnica

Video trailer de la película

Enlaces de descarga

Rip de Bluray

Descargar Heaven (2019) AMZN WEB-DL 1080p Latino




Aportes de DPeliculasHDmega la pass es:dpeliculashdmega.org Aportes de CinemaniaHD la pass es:cinemaniahdd.com
Guardado en : Drama , Película de TV

Películas relacionadas

descargar Heaven (2019) AMZN WEB-DL 1080p Latino WEBDL 1080p gratis, Heaven (2019) AMZN WEB-DL 1080p Latino WEBDL mega 1 link, Heaven (2019) AMZN WEB-DL 1080p Latino WEBDL pelicula completa, descargar Heaven (2019) AMZN WEB-DL 1080p Latino WEBDL gratis en mega.

Heaven (2019) AMZN WEB-DL 1080p Latino pelicula full hd, Heaven (2019) AMZN WEB-DL 1080p Latino mega latino, Heaven (2019) AMZN WEB-DL 1080p Latino 4k latino, Heaven (2019) AMZN WEB-DL 1080p Latino pelicula completa, Heaven (2019) AMZN WEB-DL 1080p Latino descargar gratis, descargar Heaven (2019) AMZN WEB-DL 1080p Latino pelicula latino, Heaven (2019) AMZN WEB-DL 1080p Latino 1 link mega, Heaven (2019) AMZN WEB-DL 1080p Latino 1 link google drive, Heaven (2019) AMZN WEB-DL 1080p Latino hd 1080p latino.
Comentarios 0