×

¿Problemas para descargar con Mozilla, EDGE? Deshabilita la opción "Abrir vinculos en una pestaña nueva" tal como lo muestra ésta imagen.

He Knows Your Every Move (2018) AMZN WEB-DL 1080p Latino

1.092 vistas

Información de He Knows Your Every Move (2018) AMZN WEB-DL 1080p Latino

Datos de la película

  • Calidad:
  • Audio: Español Latino AC3 2.0 - Ingles AC3 2.0
  • Subtitulos: Español Latino SRT- FORZADOS SRT
  • Resolución: 1920x1080
  • Formato: MKV
  • Codec: H.264
  • Encoder: cinemaniahdd
  • Mediainfo: Clic para Mostrar Datos Ver
  • He Knows Your Every Move (2018) AMZN WEB-DL 1080p Latino.mkv
    Format                      : Matroska
    Format version              : Version 4
    File size                   : 5.60 GiB
    Duration                    : 1 h 26 min
    Overall bit rate            : 9 274 kb/s
    Movie name                  : He Knows Your Every Move (2018) - CinemaniaHDD.Net
    Encoded date                : UTC 2020-02-04 00:30:08
    Writing application         : mkvmerge v42.0.0 ('Overtime') 64-bit
    Writing library             : libebml v1.3.10 + libmatroska v1.5.2

    Video
    ID                          : 1
    Format                      : AVC
    Format/Info                 : Advanced Video Codec
    Format profile              : High@L4
    Format settings             : CABAC / 4 Ref Frames
    Format settings, CABAC      : Yes
    Format settings, ReFrames   : 4 frames
    Codec ID                    : V_MPEG4/ISO/AVC
    Duration                    : 1 h 26 min
    Bit rate mode               : Constant
    Bit rate                    : 8 791 kb/s
    Nominal bit rate            : 10 000 kb/s
    Width                       : 1 920 pixels
    Height                      : 1 080 pixels
    Display aspect ratio        : 16:9
    Frame rate mode             : Constant
    Frame rate                  : 23.976 (24000/1001) FPS
    Color space                 : YUV
    Chroma subsampling          : 4:2:0
    Bit depth                   : 8 bits
    Scan type                   : Progressive
    Bits/(Pixel*Frame)          : 0.177
    Stream size                 : 5.31 GiB (95%)
    Title                       : CinemaniaHDD
    Default                     : Yes
    Forced                      : No
    Color range                 : Limited
    Color primaries             : BT.709
    Transfer characteristics    : BT.709
    Matrix coefficients         : BT.709

    Audio #1
    ID                          : 2
    Format                      : AC-3
    Format/Info                 : Audio Coding 3
    Commercial name             : Dolby Digital
    Codec ID                    : A_AC3
    Duration                    : 1 h 26 min
    Bit rate mode               : Constant
    Bit rate                    : 256 kb/s
    Channel(s)                  : 2 channels
    Channel layout              : L R
    Sampling rate               : 48.0 kHz
    Frame rate                  : 31.250 FPS (1536 SPF)
    Bit depth                   : 16 bits
    Compression mode            : Lossy
    Stream size                 : 158 MiB (3%)
    Title                       : Español latino [CinemaniaHDD]
    Language                    : Spanish
    Service kind                : Complete Main
    Default                     : Yes
    Forced                      : No

    Audio #2
    ID                          : 3
    Format                      : E-AC-3
    Format/Info                 : Enhanced AC-3
    Commercial name             : Dolby Digital Plus
    Codec ID                    : A_EAC3
    Duration                    : 1 h 26 min
    Bit rate mode               : Constant
    Bit rate                    : 224 kb/s
    Channel(s)                  : 2 channels
    Channel layout              : L R
    Sampling rate               : 48.0 kHz
    Frame rate                  : 31.250 FPS (1536 SPF)
    Compression mode            : Lossy
    Stream size                 : 138 MiB (2%)
    Title                       : Inglés [CinemaniaHDD]
    Language                    : English
    Service kind                : Complete Main
    Default                     : No
    Forced                      : No

    Text #1
    ID                          : 4
    Format                      : UTF-8
    Codec ID                    : S_TEXT/UTF8
    Codec ID/Info               : UTF-8 Plain Text
    Duration                    : 1 h 19 min
    Bit rate                    : 1 b/s
    Count of elements           : 29
    Stream size                 : 752 Bytes (0%)
    Title                       : Forzados [CinemaniaHDD]
    Language                    : Spanish
    Default                     : Yes
    Forced                      : Yes

    Text #2
    ID                          : 5
    Format                      : UTF-8
    Codec ID                    : S_TEXT/UTF8
    Codec ID/Info               : UTF-8 Plain Text
    Duration                    : 1 h 22 min
    Bit rate                    : 66 b/s
    Count of elements           : 1401
    Stream size                 : 40.1 KiB (0%)
    Title                       : Español latino [CinemaniaHDD]
    Language                    : Spanish
    Default                     : No
    Forced                      : No

    Text #3
    ID                          : 6
    Format                      : UTF-8
    Codec ID                    : S_TEXT/UTF8
    Codec ID/Info               : UTF-8 Plain Text
    Duration                    : 1 h 26 min
    Bit rate                    : 77 b/s
    Count of elements           : 1737
    Stream size                 : 49.1 KiB (0%)
    Title                       : Inglés [CinemaniaHDD]
    Language                    : English
    Default                     : No
    Forced                      : No

     

  • Peso: 5.60 GiB

Sinopsis

Molly comienza un romance con Jack poco después de reparar su computadora portátil. Pronto, Jack se vuelve pegajoso y Molly lo interrumpe. De repente, sus cuentas bancarias se están agotando y encuentra fotos semidesnudas de sí misma publicadas en línea.

Ficha técnica

Video trailer de la película

Enlaces de descarga

Rip de Bluray

Descargar He Knows Your Every Move (2018) AMZN WEB-DL 1080p Latino




Aportes de DPeliculasHDmega la pass es:dpeliculashdmega.org Aportes de CinemaniaHD la pass es:cinemaniahdd.com Aportes recientes:cinemaniahdd.net
Guardado en : Película de TV , Suspenso

Películas relacionadas

  • El correo (2024) NF WEB-DL 1080p Latino

    El correo (2024) NF WEB-DL 1080p Latino

    2024
    El correo (2024) NF WEB-DL 1080p Latino

    1h 41m 2024

    Descargar El correo (2024) NF WEB-DL 1080p Latino. Año 2002. España entra en el euro. Es tiempo de...

    Director: Daniel Calparsoro

    Género: Crimen

    Actores: Stefan Weinert

  • En llamas (2023) HD 1080p Latino

    En llamas (2023) HD 1080p Latino

    2023
    En llamas (2023) HD 1080p Latino

    1h 17m 2023

    Descargar En llamas (2023) HD 1080p Latino. Una familia vive en una casa rodante en el bosque y de repente...

    Director: Peter Facinelli

    Género: Acción

    Actores: Ross McCall

descargar He Knows Your Every Move (2018) AMZN WEB-DL 1080p Latino 1080p gratis, He Knows Your Every Move (2018) AMZN WEB-DL 1080p Latino mega 1 link, He Knows Your Every Move (2018) AMZN WEB-DL 1080p Latino pelicula completa, descargar He Knows Your Every Move (2018) AMZN WEB-DL 1080p Latino gratis en mega.

He Knows Your Every Move (2018) AMZN WEB-DL 1080p Latino pelicula full hd, He Knows Your Every Move (2018) AMZN WEB-DL 1080p Latino mega latino, He Knows Your Every Move (2018) AMZN WEB-DL 1080p Latino 4k latino, He Knows Your Every Move (2018) AMZN WEB-DL 1080p Latino pelicula completa, He Knows Your Every Move (2018) AMZN WEB-DL 1080p Latino descargar gratis, descargar He Knows Your Every Move (2018) AMZN WEB-DL 1080p Latino pelicula latino, He Knows Your Every Move (2018) AMZN WEB-DL 1080p Latino 1 link mega, He Knows Your Every Move (2018) AMZN WEB-DL 1080p Latino 1 link google drive, He Knows Your Every Move (2018) AMZN WEB-DL 1080p Latino hd 1080p latino.
Comentarios 0