×

¿Problemas para descargar con Mozilla, EDGE? Deshabilita la opción "Abrir vinculos en una pestaña nueva" tal como lo muestra ésta imagen.

Hazme el favor (2023) AMZN WEB-DL 1080p Latino

328 vistas

Información de Hazme el favor (2023) AMZN WEB-DL 1080p Latino

Datos de la película

  • Calidad: WEBDL
  • Audio: Español Latino AC3 5.1 WEB-DL - Ingles AC3 5.1 WEB-DL
  • Subtitulos: Español Latino SRT- FORZADOS SRT
  • Resolución: 1920x1040p
  • Formato: MKV
  • Codec: H.264
  • Encoder: Melkor
  • Mediainfo: Clic para Mostrar Datos Ver
  • Hazme El Favor (2023) AMZN WebDL 1080p Latino.mkv
    Format                      : Matroska
    Format version              : Version 4
    File size                   : 7.38 GiB
    Duration                    : 1 h 43 min
    Overall bit rate            : 10.2 Mb/s
    Movie name                  : No Hard Feelings (2023) CinemaniaHDD.Net
    Encoded date                : UTC 2023-08-09 19:46:05
    Writing application         : mkvmerge v56.1.0 ('My Friend') 64-bit
    Writing library             : libebml v1.4.2 + libmatroska v1.6.4
    Attachments                 : CINEMANIAHD.png
    Site                        : CinemaniaHDD.Net
    Uploader                    : Melkor

    Video
    ID                          : 1
    Format                      : AVC
    Format/Info                 : Advanced Video Codec
    Format profile              : High@L4
    Format settings             : CABAC / 4 Ref Frames
    Format settings, CABAC      : Yes
    Format settings, Reference  : 4 frames
    Codec ID                    : V_MPEG4/ISO/AVC
    Duration                    : 1 h 43 min
    Bit rate mode               : Constant
    Bit rate                    : 9 089 kb/s
    Nominal bit rate            : 10 000 kb/s
    Width                       : 1 920 pixels
    Height                      : 1 040 pixels
    Display aspect ratio        : 1.85:1
    Frame rate mode             : Constant
    Frame rate                  : 23.976 (24000/1001) FPS
    Color space                 : YUV
    Chroma subsampling          : 4:2:0
    Bit depth                   : 8 bits
    Scan type                   : Progressive
    Bits/(Pixel*Frame)          : 0.190
    Stream size                 : 6.59 GiB (89%)
    Title                       : Web HD1080p [CinemaniaHDD]
    Language                    : English
    Default                     : Yes
    Forced                      : Yes
    Color range                 : Limited
    Color primaries             : BT.709
    Transfer characteristics    : BT.709
    Matrix coefficients         : BT.709

    Audio #1
    ID                          : 2
    Format                      : AC-3
    Format/Info                 : Audio Coding 3
    Commercial name             : Dolby Digital
    Codec ID                    : A_AC3
    Duration                    : 1 h 43 min
    Bit rate mode               : Constant
    Bit rate                    : 448 kb/s
    Channel(s)                  : 6 channels
    Channel layout              : L R C LFE Ls Rs
    Sampling rate               : 48.0 kHz
    Frame rate                  : 31.250 FPS (1536 SPF)
    Compression mode            : Lossy
    Stream size                 : 333 MiB (4%)
    Title                       : Español Latino [CinemaniaHDD]
    Language                    : Spanish
    Service kind                : Complete Main
    Default                     : Yes
    Forced                      : Yes

    Audio #2
    ID                          : 3
    Format                      : E-AC-3
    Format/Info                 : Enhanced AC-3
    Commercial name             : Dolby Digital Plus
    Codec ID                    : A_EAC3
    Duration                    : 1 h 43 min
    Bit rate mode               : Constant
    Bit rate                    : 640 kb/s
    Channel(s)                  : 6 channels
    Channel layout              : L R C LFE Ls Rs
    Sampling rate               : 48.0 kHz
    Frame rate                  : 31.250 FPS (1536 SPF)
    Compression mode            : Lossy
    Stream size                 : 475 MiB (6%)
    Title                       : Ingles [CinemaniaHDD]
    Language                    : English
    Service kind                : Complete Main
    Default                     : No
    Forced                      : No

    Text #1
    ID                          : 4
    Format                      : UTF-8
    Codec ID                    : S_TEXT/UTF8
    Codec ID/Info               : UTF-8 Plain Text
    Duration                    : 1 h 22 min
    Bit rate                    : 0 b/s
    Count of elements           : 10
    Stream size                 : 221 Bytes (0%)
    Title                       : Forzados-SRT [CinemaniaHDD]
    Language                    : Spanish
    Default                     : Yes
    Forced                      : Yes

    Text #2
    ID                          : 5
    Format                      : UTF-8
    Codec ID                    : S_TEXT/UTF8
    Codec ID/Info               : UTF-8 Plain Text
    Duration                    : 1 h 42 min
    Bit rate                    : 54 b/s
    Count of elements           : 1689
    Stream size                 : 41.0 KiB (0%)
    Title                       : Español-SRT [CinemaniaHDD]
    Language                    : Spanish
    Default                     : No
    Forced                      : No

    Text #3
    ID                          : 6
    Format                      : UTF-8
    Codec ID                    : S_TEXT/UTF8
    Codec ID/Info               : UTF-8 Plain Text
    Duration                    : 1 h 40 min
    Bit rate                    : 77 b/s
    Count of elements           : 1810
    Stream size                 : 57.5 KiB (0%)
    Title                       : Ingles-SRT [CinemaniaHDD]
    Language                    : English
    Default                     : No
    Forced                      : No

  • Peso: 7.38 GiB

Sinopsis

Descargar Hazme el favor (2023) AMZN WEB-DL 1080p Latino. A punto de perder la casa en la que creció, Maddie descubre un intrigante anuncio clasificado de un trabajo: padres helicóptero millonarios buscan a alguien para poder “salir” con su hijo introvertido de 19 años, Percy, antes de que se vaya a la universidad. Para su sorpresa, Maddie, pronto descubre que el extraño Percy no es una cosa segura.

Ficha técnica

Video trailer de la película

Enlaces de descarga

Rip de Bluray

Descargar Hazme el favor (2023) AMZN WEB-DL 1080p Latino




Aportes de DPeliculasHDmega la pass es:dpeliculashdmega.org Aportes de CinemaniaHD la pass es:cinemaniahdd.com Aportes recientes:cinemaniahdd.net
Guardado en : Comedia , Romance

Películas relacionadas

descargar Hazme el favor (2023) AMZN WEB-DL 1080p Latino WEBDL 1080p gratis, Hazme el favor (2023) AMZN WEB-DL 1080p Latino WEBDL mega 1 link, Hazme el favor (2023) AMZN WEB-DL 1080p Latino WEBDL pelicula completa, descargar Hazme el favor (2023) AMZN WEB-DL 1080p Latino WEBDL gratis en mega.

Hazme el favor (2023) AMZN WEB-DL 1080p Latino pelicula full hd, Hazme el favor (2023) AMZN WEB-DL 1080p Latino mega latino, Hazme el favor (2023) AMZN WEB-DL 1080p Latino 4k latino, Hazme el favor (2023) AMZN WEB-DL 1080p Latino pelicula completa, Hazme el favor (2023) AMZN WEB-DL 1080p Latino descargar gratis, descargar Hazme el favor (2023) AMZN WEB-DL 1080p Latino pelicula latino, Hazme el favor (2023) AMZN WEB-DL 1080p Latino 1 link mega, Hazme el favor (2023) AMZN WEB-DL 1080p Latino 1 link google drive, Hazme el favor (2023) AMZN WEB-DL 1080p Latino hd 1080p latino.
Comentarios 2
  • Jose - 09 agosto, 2023

    No sirven para nada los acortadores… no te redireccionan …que lástima que no sea como antes….antes no había ningún inconveniente

    • CinemaniaHDD - 09 agosto, 2023

      nuestro sistema esta bien, lo acabo de revisar tu solución es comprar VIP si te molesta usar la opción FREE