×

¿Problemas para descargar con Mozilla, EDGE? Deshabilita la opción "Abrir vinculos en una pestaña nueva" tal como lo muestra ésta imagen.

Hay algo mal con los niños (2023) AMZN WEB-DL 1080p Latino

271 vistas

Información de Hay algo mal con los niños (2023) AMZN WEB-DL 1080p Latino

Datos de la película

  • Calidad: WEBDL
  • Audio: Español Latino AC3 5.1 WEB-DL - Ingles AC3 5.1 WEB-DL
  • Subtitulos: Español Latino SRT- FORZADOS SRT
  • Resolución: 1920x1040p
  • Formato: MKV
  • Codec: H.264
  • Encoder: Melkor
  • Mediainfo: Clic para Mostrar Datos Ver
  • Hay algo mal con los niños (2023) AMZN WebDL 1080p Latino.mkv Format                      : Matroska Format version              : Version 4 File size                   : 5.81 GiB Duration                    : 1 h 32 min Overall bit rate            : 9 016 kb/s Movie name                  : Theres Something Wrong With The children (2023) CinemaniaHDD.Net Encoded date                : UTC 2023-01-29 22:59:10 Writing application         : mkvmerge v56.1.0 ('My Friend') 64-bit Writing library             : libebml v1.4.2 + libmatroska v1.6.4 Attachments                 : CINEMANIAHD.png Video ID                          : 1 Format                      : AVC Format/Info                 : Advanced Video Codec Format profile              : High@L4 Format settings             : CABAC / 4 Ref Frames Format settings, CABAC      : Yes Format settings, Reference  : 4 frames Codec ID                    : V_MPEG4/ISO/AVC Duration                    : 1 h 32 min Bit rate mode               : Constant Bit rate                    : 7 991 kb/s Nominal bit rate            : 10 000 kb/s Width                       : 1 920 pixels Height                      : 1 040 pixels Display aspect ratio        : 1.85:1 Frame rate mode             : Constant Frame rate                  : 23.976 (24000/1001) FPS Color space                 : YUV Chroma subsampling          : 4:2:0 Bit depth                   : 8 bits Scan type                   : Progressive Bits/(Pixel*Frame)          : 0.167 Stream size                 : 5.15 GiB (89%) Title                       : Web HD1080p [CinemaniaHDD] Language                    : English Default                     : Yes Forced                      : Yes Color range                 : Limited Color primaries             : BT.709 Transfer characteristics    : BT.709 Matrix coefficients         : BT.709 Audio #1 ID                          : 2 Format                      : AC-3 Format/Info                 : Audio Coding 3 Commercial name             : Dolby Digital Codec ID                    : A_AC3 Duration                    : 1 h 32 min Bit rate mode               : Constant Bit rate                    : 384 kb/s Channel(s)                  : 6 channels Channel layout              : L R C LFE Ls Rs Sampling rate               : 48.0 kHz Frame rate                  : 31.250 FPS (1536 SPF) Compression mode            : Lossy Delay relative to video     : 21 ms Stream size                 : 253 MiB (4%) Title                       : Español Latino [CinemaniaHDD] Language                    : Spanish Service kind                : Complete Main Default                     : Yes Forced                      : Yes Audio #2 ID                          : 3 Format                      : E-AC-3 Format/Info                 : Enhanced AC-3 Commercial name             : Dolby Digital Plus Codec ID                    : A_EAC3 Duration                    : 1 h 32 min Bit rate mode               : Constant Bit rate                    : 640 kb/s Channel(s)                  : 6 channels Channel layout              : L R C LFE Ls Rs Sampling rate               : 48.0 kHz Frame rate                  : 31.250 FPS (1536 SPF) Compression mode            : Lossy Stream size                 : 422 MiB (7%) Title                       : Ingles [CinemaniaHDD] Language                    : English Service kind                : Complete Main Default                     : No Forced                      : No Text #1 ID                          : 4 Format                      : UTF-8 Codec ID                    : S_TEXT/UTF8 Codec ID/Info               : UTF-8 Plain Text Duration                    : 59 min 25 s Bit rate                    : 0 b/s Count of elements           : 3 Stream size                 : 70.0 Bytes (0%) Title                       : Forzados-SRT [CinemaniaHDD] Language                    : Spanish Default                     : Yes Forced                      : Yes Text #2 ID                          : 5 Format                      : UTF-8 Codec ID                    : S_TEXT/UTF8 Codec ID/Info               : UTF-8 Plain Text Duration                    : 1 h 25 min Bit rate                    : 58 b/s Count of elements           : 1131 Stream size                 : 36.5 KiB (0%) Title                       : Español-SRT [CinemaniaHDD] Language                    : Spanish Default                     : No Forced                      : No Text #3 ID                          : 6 Format                      : UTF-8 Codec ID                    : S_TEXT/UTF8 Codec ID/Info               : UTF-8 Plain Text Duration                    : 1 h 30 min Bit rate                    : 51 b/s Count of elements           : 1157 Stream size                 : 34.1 KiB (0%) Title                       : Ingles-SRT [CinemaniaHDD] Language                    : English Default                     : No Forced                      : No
  • Peso: 5.81 GiB

Sinopsis

Descargar Hay algo mal con los niños (2023) AMZN WEB-DL 1080p Latino. Margaret y Ben hacen un viaje de fin de semana con sus viejos amigos Ellie y Thomas y sus dos hijos pequeños. Eventualmente, Ben comienza a sospechar que algo sobrenatural está ocurriendo cuando los niños se comportan de manera extraña después de desaparecer en el bosque durante la noche.

Ficha técnica

Video trailer de la película

Enlaces de descarga

Rip de Bluray

Descargar Hay algo mal con los niños (2023) AMZN WEB-DL 1080p Latino




Aportes de DPeliculasHDmega la pass es:dpeliculashdmega.org Aportes de CinemaniaHD la pass es:cinemaniahdd.com Aportes recientes:cinemaniahdd.net
Guardado en : Misterio , Suspenso , Terror

Películas relacionadas

descargar Hay algo mal con los niños (2023) AMZN WEB-DL 1080p Latino WEBDL 1080p gratis, Hay algo mal con los niños (2023) AMZN WEB-DL 1080p Latino WEBDL mega 1 link, Hay algo mal con los niños (2023) AMZN WEB-DL 1080p Latino WEBDL pelicula completa, descargar Hay algo mal con los niños (2023) AMZN WEB-DL 1080p Latino WEBDL gratis en mega.

Hay algo mal con los niños (2023) AMZN WEB-DL 1080p Latino pelicula full hd, Hay algo mal con los niños (2023) AMZN WEB-DL 1080p Latino mega latino, Hay algo mal con los niños (2023) AMZN WEB-DL 1080p Latino 4k latino, Hay algo mal con los niños (2023) AMZN WEB-DL 1080p Latino pelicula completa, Hay algo mal con los niños (2023) AMZN WEB-DL 1080p Latino descargar gratis, descargar Hay algo mal con los niños (2023) AMZN WEB-DL 1080p Latino pelicula latino, Hay algo mal con los niños (2023) AMZN WEB-DL 1080p Latino 1 link mega, Hay algo mal con los niños (2023) AMZN WEB-DL 1080p Latino 1 link google drive, Hay algo mal con los niños (2023) AMZN WEB-DL 1080p Latino hd 1080p latino.
Comentarios 0