Hawkeye (2021) Temporada 1 WEB-DL 1080p Latino

250 vistas

Información de Hawkeye (2021) Temporada 1 WEB-DL 1080p Latino

Datos de la película

  • Calidad: WEBDL
  • Audio: Se especifica abajo de la Sinopsis
  • Subtitulos: Español Latino SRT - Ingles SRT
  • Resolución: 1920x1080p
  • Formato: MKV
  • Codec: H.264
  • Encoder: CinemaniaHD
  • Mediainfo: Clic para Mostrar Datos Ver
  • Hawkeye S01E01 (2021) D+ Web-DL 1080p Latino.mkv
    Format                      : Matroska
    Format version              : Version 4
    File size                   : 2.25 GiB
    Duration                    : 47 min 21 s
    Overall bit rate mode       : Variable
    Overall bit rate            : 6 797 kb/s
    Movie name                  : CinemaniaHDD.Net
    Encoded date                : UTC 2021-11-24 08:15:23
    Writing application         : mkvmerge v56.1.0 ('My Friend') 64-bit
    Writing library             : libebml v1.4.2 + libmatroska v1.6.4
    Attachments                 : CINEMANIAHD.png

    Video
    ID                          : 1
    Format                      : AVC
    Format/Info                 : Advanced Video Codec
    Format profile              : High@L4
    Format settings             : CABAC / 4 Ref Frames
    Format settings, CABAC      : Yes
    Format settings, Reference  : 4 frames
    Codec ID                    : V_MPEG4/ISO/AVC
    Duration                    : 47 min 21 s
    Bit rate mode               : Variable
    Bit rate                    : 5 770 kb/s
    Maximum bit rate            : 12.7 Mb/s
    Width                       : 1 920 pixels
    Height                      : 1 080 pixels
    Display aspect ratio        : 16:9
    Frame rate mode             : Constant
    Frame rate                  : 24.000 FPS
    Color space                 : YUV
    Chroma subsampling          : 4:2:0
    Bit depth                   : 8 bits
    Scan type                   : Progressive
    Bits/(Pixel*Frame)          : 0.116
    Stream size                 : 1.91 GiB (85%)
    Title                       : WEB HD1080p [CinemaniaHDD]
    Default                     : Yes
    Forced                      : No
    Color range                 : Limited
    Color primaries             : BT.709
    Transfer characteristics    : BT.709
    Matrix coefficients         : BT.709

    Audio #1
    ID                          : 2
    Format                      : E-AC-3
    Format/Info                 : Enhanced AC-3
    Commercial name             : Dolby Digital Plus
    Codec ID                    : A_EAC3
    Duration                    : 47 min 21 s
    Bit rate mode               : Constant
    Bit rate                    : 256 kb/s
    Channel(s)                  : 6 channels
    Channel layout              : L R C LFE Ls Rs
    Sampling rate               : 48.0 kHz
    Frame rate                  : 31.250 FPS (1536 SPF)
    Compression mode            : Lossy
    Stream size                 : 86.7 MiB (4%)
    Title                       : Español Latino [CinemaniaHDD]
    Language                    : Spanish
    Service kind                : Complete Main
    Default                     : Yes
    Forced                      : No

    Audio #2
    ID                          : 3
    Format                      : E-AC-3 JOC
    Format/Info                 : Enhanced AC-3 with Joint Object Coding
    Commercial name             : Dolby Digital Plus with Dolby Atmos
    Codec ID                    : A_EAC3
    Duration                    : 47 min 21 s
    Bit rate mode               : Constant
    Bit rate                    : 768 kb/s
    Channel(s)                  : 6 channels
    Channel layout              : L R C LFE Ls Rs
    Sampling rate               : 48.0 kHz
    Frame rate                  : 31.250 FPS (1536 SPF)
    Compression mode            : Lossy
    Stream size                 : 260 MiB (11%)
    Title                       : Ingles [CinemaniaHDD]
    Language                    : English
    Service kind                : Complete Main
    Default                     : No
    Forced                      : No
    Complexity index            : 16
    Number of dynamic objects   : 15
    Bed channel count           : 1 channel
    Bed channel configuration   : LFE

    Text #1
    ID                          : 4
    Format                      : UTF-8
    Codec ID                    : S_TEXT/UTF8
    Codec ID/Info               : UTF-8 Plain Text
    Duration                    : 33 min 31 s
    Bit rate                    : 0 b/s
    Count of elements           : 9
    Stream size                 : 191 Bytes (0%)
    Title                       : Forzados-SRT [CinemaniaHDD]
    Language                    : Spanish
    Default                     : Yes
    Forced                      : No

    Text #2
    ID                          : 5
    Format                      : UTF-8
    Codec ID                    : S_TEXT/UTF8
    Codec ID/Info               : UTF-8 Plain Text
    Duration                    : 46 min 24 s
    Bit rate                    : 48 b/s
    Count of elements           : 524
    Stream size                 : 16.5 KiB (0%)
    Title                       : Español-SRT [CinemaniaHDD]
    Language                    : Spanish
    Default                     : No
    Forced                      : No

    Text #3
    ID                          : 6
    Format                      : UTF-8
    Codec ID                    : S_TEXT/UTF8
    Codec ID/Info               : UTF-8 Plain Text
    Duration                    : 43 min 58 s
    Bit rate                    : 47 b/s
    Count of elements           : 492
    Stream size                 : 15.4 KiB (0%)
    Title                       : Ingles-SRT [CinemaniaHDD]
    Language                    : English
    Default                     : No
    Forced                      : No

  • Peso: 1.75 - 2.86 GiB Aprox. C/U | 13.0 GiB Total

Sinopsis

Descargar Hawkeye (2021) Temporada 1 WEB-DL 1080p Latino. «Hawkeye», de Marvel Studios, es una nueva serie original que transcurre en una Ciudad de Nueva York post-Blip, donde el antes vengador Clint Barton, alias Hawkeye, tiene una misión que parece simple: regresar con su familia para Navidad. Pero cuando surge una amenaza de su pasado, Hawkeye renuentemente hace equipo con Kate Bishop, una hábil arquera de 22 años y su fan número uno, para desentrañar una conspiración criminal.

Audio Español Latino EAC3 5.1 D+ – Ingles EAC3 5.1 D+
6 Capitulos Disponibles!!

Ficha técnica

Video trailer de la película

Enlaces de descarga

Rip de Bluray

Descargar Hawkeye (2021) Temporada 1 WEB-DL 1080p Latino




Aportes de DPeliculasHDmega la pass es:dpeliculashdmega.org Aportes de CinemaniaHD la pass es:cinemaniahdd.com

Películas relacionadas

Hawkeye (2021) Temporada 1 WEB-DL 1080p Latino pelicula full hd, Hawkeye (2021) Temporada 1 WEB-DL 1080p Latino mega latino, Hawkeye (2021) Temporada 1 WEB-DL 1080p Latino 4k latino, Hawkeye (2021) Temporada 1 WEB-DL 1080p Latino pelicula completa, Hawkeye (2021) Temporada 1 WEB-DL 1080p Latino descargar gratis, descargar Hawkeye (2021) Temporada 1 WEB-DL 1080p Latino pelicula latino, Hawkeye (2021) Temporada 1 WEB-DL 1080p Latino 1 link mega, Hawkeye (2021) Temporada 1 WEB-DL 1080p Latino 1 link google drive, Hawkeye (2021) Temporada 1 WEB-DL 1080p Latino hd 1080p latino.
Comentarios 1
  • ocpgaiden - 16 diciembre, 2021

    Gracias por el capitulo 5 de hawkeye, saludos