×

¿Problemas para descargar con Mozilla, EDGE? Deshabilita la opción "Abrir vinculos en una pestaña nueva" tal como lo muestra ésta imagen.

Hawa (2022) AMZN WEB-DL 1080p Latino

56 vistas

Información de Hawa (2022) AMZN WEB-DL 1080p Latino

Datos de la película

  • Calidad: 1080p
  • Audio: Español Latino AC3 5.1 WEB-DL - Ingles AC3 5.1 WEB-DL
  • Subtitulos: Español Latino SRT- FORZADOS SRT
  • Resolución: 1920x1080
  • Formato: MKV
  • Codec: H.264
  • Encoder: cinemaniahdd
  • Mediainfo: Clic para Mostrar Datos Ver
  • Hawa (2022) AMZN WEB-DL 1080p Latino [CNMNHDD].mkv
    Format                      : Matroska
    Format version              : Version 4
    File size                   : 5.56 GiB
    Duration                    : 1 h 45 min
    Overall bit rate            : 7 573 kb/s
    Movie name                  : Hawa (2022) [1080p] - CinemaniaHDD.Net
    Encoded date                : UTC 2022-12-09 00:58:53
    Writing application         : mkvmerge v56.1.0 ('My Friend') 64-bit
    Writing library             : libebml v1.4.2 + libmatroska v1.6.4

    Video
    ID                          : 1
    Format                      : AVC
    Format/Info                 : Advanced Video Codec
    Format profile              : High@L4
    Format settings             : CABAC / 4 Ref Frames
    Format settings, CABAC      : Yes
    Format settings, Reference  : 4 frames
    Codec ID                    : V_MPEG4/ISO/AVC
    Duration                    : 1 h 45 min
    Bit rate mode               : Constant
    Bit rate                    : 5 651 kb/s
    Nominal bit rate            : 10 000 kb/s
    Width                       : 1 920 pixels
    Height                      : 872 pixels
    Display aspect ratio        : 2.2:1
    Frame rate mode             : Constant
    Frame rate                  : 24.000 FPS
    Color space                 : YUV
    Chroma subsampling          : 4:2:0
    Bit depth                   : 8 bits
    Scan type                   : Progressive
    Bits/(Pixel*Frame)          : 0.141
    Stream size                 : 4.15 GiB (75%)
    Title                       : CinemaniaHDD
    Default                     : Yes
    Forced                      : No
    Color range                 : Limited
    Color primaries             : BT.709
    Transfer characteristics    : BT.709
    Matrix coefficients         : BT.709

    Audio #1
    ID                          : 2
    Format                      : AC-3
    Format/Info                 : Audio Coding 3
    Commercial name             : Dolby Digital
    Codec ID                    : A_AC3
    Duration                    : 1 h 45 min
    Bit rate mode               : Constant
    Bit rate                    : 640 kb/s
    Channel(s)                  : 6 channels
    Channel layout              : L R C LFE Ls Rs
    Sampling rate               : 48.0 kHz
    Frame rate                  : 31.250 FPS (1536 SPF)
    Compression mode            : Lossy
    Stream size                 : 481 MiB (8%)
    Title                       : Español latino [CinemaniaHDD]
    Language                    : Spanish
    Service kind                : Complete Main
    Default                     : Yes
    Forced                      : No

    Audio #2
    ID                          : 3
    Format                      : E-AC-3
    Format/Info                 : Enhanced AC-3
    Commercial name             : Dolby Digital Plus
    Codec ID                    : A_EAC3
    Duration                    : 1 h 45 min
    Bit rate mode               : Constant
    Bit rate                    : 640 kb/s
    Channel(s)                  : 6 channels
    Channel layout              : L R C LFE Ls Rs
    Sampling rate               : 48.0 kHz
    Frame rate                  : 31.250 FPS (1536 SPF)
    Compression mode            : Lossy
    Stream size                 : 481 MiB (8%)
    Title                       : Español latino / E-AC3 [CinemaniaHDD]
    Language                    : Spanish
    Service kind                : Complete Main
    Default                     : No
    Forced                      : No

    Audio #3
    ID                          : 4
    Format                      : E-AC-3
    Format/Info                 : Enhanced AC-3
    Commercial name             : Dolby Digital Plus
    Codec ID                    : A_EAC3
    Duration                    : 1 h 45 min
    Bit rate mode               : Constant
    Bit rate                    : 640 kb/s
    Channel(s)                  : 6 channels
    Channel layout              : L R C LFE Ls Rs
    Sampling rate               : 48.0 kHz
    Frame rate                  : 31.250 FPS (1536 SPF)
    Compression mode            : Lossy
    Stream size                 : 481 MiB (8%)
    Title                       : Inglés [CinemaniaHDD]
    Language                    : English
    Service kind                : Complete Main
    Default                     : No
    Forced                      : No

    Text #1
    ID                          : 5
    Format                      : UTF-8
    Codec ID                    : S_TEXT/UTF8
    Codec ID/Info               : UTF-8 Plain Text
    Duration                    : 1 h 41 min
    Bit rate                    : 5 b/s
    Count of elements           : 150
    Stream size                 : 3.80 KiB (0%)
    Title                       : Forzados [CinemaniaHDD]
    Language                    : Spanish
    Default                     : Yes
    Forced                      : Yes

    Text #2
    ID                          : 6
    Format                      : UTF-8
    Codec ID                    : S_TEXT/UTF8
    Codec ID/Info               : UTF-8 Plain Text
    Duration                    : 1 h 43 min
    Bit rate                    : 42 b/s
    Count of elements           : 1310
    Stream size                 : 31.8 KiB (0%)
    Title                       : Español latino [CinemaniaHDD]
    Language                    : Spanish
    Default                     : No
    Forced                      : No

    Text #3
    ID                          : 7
    Format                      : UTF-8
    Codec ID                    : S_TEXT/UTF8
    Codec ID/Info               : UTF-8 Plain Text
    Duration                    : 1 h 41 min
    Bit rate                    : 39 b/s
    Count of elements           : 1183
    Stream size                 : 29.3 KiB (0%)
    Title                       : Inglés [CinemaniaHDD]
    Language                    : English
    Default                     : No
    Forced                      : No

    Menu
    00:00:00.000                : :Amazon Original
    00:00:06.000                : :Studio Logo
    00:00:13.000                : :Opening Credits
    00:00:51.000                : :Title Sequence
    00:00:59.000                : :Scene 5
    00:02:14.000                : :Scene 6
    00:05:00.000                : :Scene 7
    00:06:02.000                : :Scene 8
    00:08:32.000                : :Scene 9
    00:11:44.000                : :Scene 10
    00:13:26.000                : :Scene 11
    00:15:40.000                : :Scene 12
    00:16:48.000                : :Scene 13
    00:18:25.000                : :Scene 14
    00:19:22.000                : :Scene 15
    00:20:48.000                : :Scene 16
    00:23:51.000                : :Scene 17
    00:26:12.000                : :Scene 18
    00:33:25.000                : :Scene 19
    00:35:20.000                : :Scene 20
    00:37:55.000                : :Scene 21
    00:39:11.000                : :Scene 22
    00:46:40.000                : :Scene 23
    00:48:14.000                : :Scene 24
    00:49:45.000                : :Scene 25
    00:51:21.000                : :Scene 26
    00:51:44.000                : :Scene 27
    00:52:35.000                : :Scene 28
    00:53:35.000                : :Scene 29
    00:55:50.000                : :Scene 30
    00:57:58.000                : :Scene 31
    00:59:27.000                : :Scene 32
    01:01:52.000                : :Scene 33
    01:04:27.000                : :Scene 34
    01:05:46.000                : :Scene 35
    01:06:40.000                : :Scene 36
    01:07:28.000                : :Scene 37
    01:09:13.000                : :Scene 38
    01:11:11.000                : :Scene 39
    01:17:18.000                : :Scene 40
    01:22:04.000                : :Scene 41
    01:22:36.000                : :Scene 42
    01:26:18.000                : :Scene 43
    01:27:28.000                : :Scene 44
    01:29:42.000                : :Scene 45
    01:33:37.000                : :Scene 46
    01:35:01.000                : :Scene 47
    01:39:50.000                : :End Credits

     

  • Peso: 5.56 GiB

Sinopsis

Hawa, una chica de 13 años, vive únicamente con su abuela, quien está terriblemente enferma. Hawa rechaza todos los “sustitutos“ que su abuela le ofrece, hasta que un día, Hawa decide que la única mujer que puede adoptarla es… Michelle Obama.

Ficha técnica

Video trailer de la película

Enlaces de descarga

Rip de Bluray

Descargar Hawa (2022) AMZN WEB-DL 1080p Latino




Aportes de DPeliculasHDmega la pass es:dpeliculashdmega.org Aportes de CinemaniaHD la pass es:cinemaniahdd.com
Guardado en : Comedia , Drama

Películas relacionadas

  • El discurso del Rey (2010) 1080p Latino

    El discurso del Rey (2010) 1080p Latino

    2010
    El discurso del Rey (2010) 1080p Latino

    1h 58m 2010

    Descargar El discurso del Rey (2010) 1080p Latino. El duque de York se convirtió en rey de Gran Bretaña...

    Director: Tom Hooper

    Género: Drama

    Actores: Tony Earnshaw

  • El discurso del Rey (2010) Full HD 1080p Latino

    El discurso del Rey (2010) Full HD 1080p Latino

    2010
    El discurso del Rey (2010) Full HD 1080p Latino

    1h 58m 2010

    Descargar El discurso del Rey (2010) Full HD 1080p Latino. El duque de York se convirtió en rey de Gran...

    Director: Tom Hooper

    Género: Drama

    Actores: Tony Earnshaw

  • El discurso del Rey (2010) REMUX 1080p Latino

    El discurso del Rey (2010) REMUX 1080p Latino

    2010
    El discurso del Rey (2010) REMUX 1080p Latino

    1h 58m 2010

    Descargar El discurso del Rey (2010) REMUX 1080p Latino. El duque de York se convirtió en rey de Gran...

    Director: Tom Hooper

    Género: Drama

    Actores: Tony Earnshaw

  • 8 Mile (2002) REMUX 4K HDR Latino – CMHDD

    8 Mile (2002) REMUX 4K HDR Latino – CMHDD

    2002
    8 Mile (2002) REMUX 4K HDR Latino – CMHDD

    1h 50m 2002

    Detroit, 1995. La promesa de potencia industrial se ha transformado en un hervidero de conflictos económicos...

    Director: Michael J. Moore

    Género: Drama

    Actores: Xzibit

descargar Hawa (2022) AMZN WEB-DL 1080p Latino 1080p 1080p gratis, Hawa (2022) AMZN WEB-DL 1080p Latino 1080p mega 1 link, Hawa (2022) AMZN WEB-DL 1080p Latino 1080p pelicula completa, descargar Hawa (2022) AMZN WEB-DL 1080p Latino 1080p gratis en mega.

Hawa (2022) AMZN WEB-DL 1080p Latino pelicula full hd, Hawa (2022) AMZN WEB-DL 1080p Latino mega latino, Hawa (2022) AMZN WEB-DL 1080p Latino 4k latino, Hawa (2022) AMZN WEB-DL 1080p Latino pelicula completa, Hawa (2022) AMZN WEB-DL 1080p Latino descargar gratis, descargar Hawa (2022) AMZN WEB-DL 1080p Latino pelicula latino, Hawa (2022) AMZN WEB-DL 1080p Latino 1 link mega, Hawa (2022) AMZN WEB-DL 1080p Latino 1 link google drive, Hawa (2022) AMZN WEB-DL 1080p Latino hd 1080p latino.
Comentarios 0