The Hater (2020) REMUX 1080p Latino

33 vistas
1 estrella2 estrellas3 estrellas4 estrellas5 estrellas (Ninguna valoración todavía)
Cargando...

Información de The Hater (2020) REMUX 1080p Latino

Datos de la película

  • Calidad: Full 1080p
  • Audio: Se especifica abajo de la Sinopsis
  • Subtitulos: Español Latino SRT- FORZADOS SRT
  • Resolución: 1920x1080p
  • Formato: MKV
  • Codec: H.264
  • Encoder: Melkor
  • Mediainfo: Clic para Mostrar Datos Ver
  • The Hater (2020) REMUX 1080p Latino.mkv
    Format                      : Matroska
    Format version              : Version 4
    File size                   : 34.9 GiB
    Duration                    : 2 h 15 min
    Overall bit rate mode       : Variable
    Overall bit rate            : 37.0 Mb/s
    Movie name                  : The Hater (2020) CinemaniaHDD.Net
    Encoded date                : UTC 2020-08-12 01:56:42
    Writing application         : mkvmerge v46.0.0 ('No Deeper Escape') 64-bit
    Writing library             : libebml v1.3.10 + libmatroska v1.5.2
    Attachments                 : CINEMANIAHD.png

    Video
    ID                          : 1
    Format                      : AVC
    Format/Info                 : Advanced Video Codec
    Format profile              : High@L4.1
    Format settings             : CABAC / 3 Ref Frames
    Format settings, CABAC      : Yes
    Format settings, Reference  : 3 frames
    Format settings, GOP        : M=3, N=22
    Codec ID                    : V_MPEG4/ISO/AVC
    Duration                    : 2 h 15 min
    Bit rate mode               : Variable
    Bit rate                    : 33.0 Mb/s
    Maximum bit rate            : 40.0 Mb/s
    Width                       : 1 920 pixels
    Height                      : 1 080 pixels
    Display aspect ratio        : 16:9
    Frame rate mode             : Constant
    Frame rate                  : 24.000 FPS
    Color space                 : YUV
    Chroma subsampling          : 4:2:0
    Bit depth                   : 8 bits
    Scan type                   : Progressive
    Bits/(Pixel*Frame)          : 0.663
    Stream size                 : 31.1 GiB (89%)
    Title                       : REMUX 1080p [CinemaniaHDD]
    Writing library             : x264 core 157 r2969 d4099dd
    Encoding settings           : cabac=1 / ref=4 / deblock=1:0:0 / analyse=0x3:0x133 / me=umh / subme=10 / psy=1 / psy_rd=1.00:0.00 / mixed_ref=1 / me_range=24 / chroma_me=1 / trellis=2 / 8x8dct=1 / cqm=0 / deadzone=21,11 / fast_pskip=1 / chroma_qp_offset=-2 / threads=34 / lookahead_threads=2 / sliced_threads=0 / slices=4 / nr=0 / decimate=1 / interlaced=0 / bluray_compat=1 / constrained_intra=0 / bframes=3 / b_pyramid=1 / b_adapt=2 / b_bias=0 / direct=3 / weightb=1 / open_gop=1 / weightp=0 / keyint=23 / keyint_min=1 / scenecut=40 / intra_refresh=0 / rc_lookahead=23 / rc=2pass / mbtree=1 / bitrate=33000 / ratetol=1.0 / qcomp=0.60 / qpmin=0 / qpmax=69 / qpstep=4 / cplxblur=20.0 / qblur=0.5 / vbv_maxrate=40000 / vbv_bufsize=30000 / nal_hrd=vbr / filler=0 / ip_ratio=1.40 / aq=1:1.00
    Default                     : Yes
    Forced                      : Yes
    Color range                 : Limited
    Color primaries             : BT.709
    Transfer characteristics    : BT.709
    Matrix coefficients         : BT.709

    Audio #1
    ID                          : 2
    Format                      : AC-3
    Format/Info                 : Audio Coding 3
    Commercial name             : Dolby Digital
    Codec ID                    : A_AC3
    Duration                    : 2 h 15 min
    Bit rate mode               : Constant
    Bit rate                    : 640 kb/s
    Channel(s)                  : 6 channels
    Channel layout              : L R C LFE Ls Rs
    Sampling rate               : 48.0 kHz
    Frame rate                  : 31.250 FPS (1536 SPF)
    Compression mode            : Lossy
    Stream size                 : 619 MiB (2%)
    Title                       : Español Latino [CinemaniaHDD]
    Language                    : Spanish
    Service kind                : Complete Main
    Default                     : Yes
    Forced                      : Yes

    Audio #2
    ID                          : 3
    Format                      : DTS XLL
    Format/Info                 : Digital Theater Systems
    Commercial name             : DTS-HD Master Audio
    Codec ID                    : A_DTS
    Duration                    : 2 h 15 min
    Bit rate mode               : Variable
    Bit rate                    : 3 393 kb/s
    Channel(s)                  : 6 channels
    Channel layout              : C L R Ls Rs LFE
    Sampling rate               : 48.0 kHz
    Frame rate                  : 93.750 FPS (512 SPF)
    Bit depth                   : 24 bits
    Compression mode            : Lossless
    Stream size                 : 3.20 GiB (9%)
    Title                       : Polaco [CinemaniaHDD]
    Language                    : Polish
    Default                     : No
    Forced                      : No

    Text #1
    ID                          : 4
    Format                      : UTF-8
    Codec ID                    : S_TEXT/UTF8
    Codec ID/Info               : UTF-8 Plain Text
    Duration                    : 1 h 43 min
    Bit rate                    : 3 b/s
    Count of elements           : 83
    Stream size                 : 2.50 KiB (0%)
    Title                       : Forzados-SRT [CinemaniaHDD]
    Language                    : Spanish
    Default                     : Yes
    Forced                      : Yes

    Text #2
    ID                          : 5
    Format                      : UTF-8
    Codec ID                    : S_TEXT/UTF8
    Codec ID/Info               : UTF-8 Plain Text
    Duration                    : 2 h 13 min
    Bit rate                    : 50 b/s
    Count of elements           : 1410
    Stream size                 : 49.0 KiB (0%)
    Title                       : Español-SRT [CinemaniaHDD]
    Language                    : Spanish
    Default                     : No
    Forced                      : No

    Menu
    00:00:00.000                : en:Chapter 01
    00:09:41.625                : en:Chapter 02
    00:19:24.042                : en:Chapter 03
    00:29:15.292                : en:Chapter 04
    00:39:33.292                : en:Chapter 05
    00:50:01.375                : en:Chapter 06
    00:59:25.917                : en:Chapter 07
    01:10:33.042                : en:Chapter 08
    01:19:41.708                : en:Chapter 09
    01:35:35.542                : en:Chapter 10
    01:46:19.042                : en:Chapter 11
    02:02:42.708                : en:Chapter 12

  • Peso: 34.9 GiB

Sinopsis

Descargar The Hater (2020) REMUX 1080p Latino. Narra las manipulaciones del maquiavélico Tomek para conseguir el amor de Gabi, una chica que está en un estatus social por encima del suyo. Él es en realidad un trepador de la era digital que no le importa producir un caos en la red con tal de llegar a su amor imposible.

Español Latino AC3 5.1 – Polaco DTS-HD 5.1

Ficha técnica

  • Titulo original: Sala samobójców. Hejter
  • Fecha de lanzamiento: 06-03-2020 (Poland)
  • Director: Jan Komasa
  • Género: Drama, Remux, Suspenso
  • Puntuación: 0.0 0 votos
  • Duración:
    2h 15m

Video trailer de la película

Enlaces de descarga

Rip de Bluray

Descargar The Hater (2020) REMUX 1080p Latino




Aportes de DPeliculasHDmega la pass es:dpeliculashdmega.org Aportes de CinemaniaHD la pass es:cinemaniahdd.com
Guardado en : Drama , Remux , Suspenso

Películas relacionadas

Comentarios 0