The Hater (2020) HD 1080p Latino

32 vistas
1 estrella2 estrellas3 estrellas4 estrellas5 estrellas (Ninguna valoración todavía)
Cargando...

Información de The Hater (2020) HD 1080p Latino

Datos de la película

  • Calidad: 1080p
  • Audio: Se especifica abajo de la Sinopsis
  • Subtitulos: Español Latino SRT- FORZADOS SRT
  • Resolución: 1920x804p
  • Formato: MKV
  • Codec: H.264
  • Encoder: Melkor
  • Mediainfo: Clic para Mostrar Datos Ver
  • The Hater (2020) HD 1080p Latino.mkv
    Format                      : Matroska
    Format version              : Version 4
    File size                   : 4.29 GiB
    Duration                    : 2 h 15 min
    Overall bit rate            : 4 546 kb/s
    Movie name                  : The Hater (2020) CinemaniaHDD.Net
    Encoded date                : UTC 2020-08-12 02:07:36
    Writing application         : mkvmerge v46.0.0 ('No Deeper Escape') 64-bit
    Writing library             : libebml v1.3.10 + libmatroska v1.5.2
    Attachments                 : CINEMANIAHD.png

    Video
    ID                          : 1
    Format                      : AVC
    Format/Info                 : Advanced Video Codec
    Format profile              : High@L4.1
    Format settings             : CABAC / 5 Ref Frames
    Format settings, CABAC      : Yes
    Format settings, Reference  : 5 frames
    Codec ID                    : V_MPEG4/ISO/AVC
    Duration                    : 2 h 15 min
    Bit rate                    : 3 500 kb/s
    Width                       : 1 920 pixels
    Height                      : 804 pixels
    Display aspect ratio        : 2.40:1
    Frame rate mode             : Constant
    Frame rate                  : 24.000 FPS
    Color space                 : YUV
    Chroma subsampling          : 4:2:0
    Bit depth                   : 8 bits
    Scan type                   : Progressive
    Bits/(Pixel*Frame)          : 0.094
    Stream size                 : 3.26 GiB (76%)
    Title                       : HD1080p [CinemaniaHDD]
    Writing library             : x264 core 157 r2935 545de2f
    Encoding settings           : cabac=1 / ref=5 / deblock=1:-1:-1 / analyse=0x3:0x113 / me=hex / subme=8 / psy=1 / psy_rd=1.00:0.15 / mixed_ref=1 / me_range=16 / chroma_me=1 / trellis=2 / 8x8dct=1 / cqm=0 / deadzone=21,11 / fast_pskip=1 / chroma_qp_offset=-3 / threads=24 / lookahead_threads=4 / sliced_threads=0 / nr=0 / decimate=1 / interlaced=0 / bluray_compat=0 / constrained_intra=0 / bframes=3 / b_pyramid=2 / b_adapt=1 / b_bias=0 / direct=3 / weightb=1 / open_gop=0 / weightp=2 / keyint=240 / keyint_min=24 / scenecut=40 / intra_refresh=0 / rc_lookahead=50 / rc=abr / mbtree=1 / bitrate=3500 / ratetol=1.0 / qcomp=0.60 / qpmin=0 / qpmax=69 / qpstep=4 / vbv_maxrate=62500 / vbv_bufsize=78125 / nal_hrd=none / filler=0 / ip_ratio=1.40 / aq=1:1.00
    Default                     : Yes
    Forced                      : Yes
    Color range                 : Limited
    Color primaries             : BT.709
    Transfer characteristics    : BT.709
    Matrix coefficients         : BT.709

    Audio #1
    ID                          : 2
    Format                      : AC-3
    Format/Info                 : Audio Coding 3
    Commercial name             : Dolby Digital
    Codec ID                    : A_AC3
    Duration                    : 2 h 15 min
    Bit rate mode               : Constant
    Bit rate                    : 640 kb/s
    Channel(s)                  : 6 channels
    Channel layout              : L R C LFE Ls Rs
    Sampling rate               : 48.0 kHz
    Frame rate                  : 31.250 FPS (1536 SPF)
    Compression mode            : Lossy
    Delay relative to video     : -5 ms
    Stream size                 : 619 MiB (14%)
    Title                       : Español Latino [CinemaniaHDD]
    Language                    : Spanish
    Service kind                : Complete Main
    Default                     : Yes
    Forced                      : Yes

    Audio #2
    ID                          : 3
    Format                      : AC-3
    Format/Info                 : Audio Coding 3
    Commercial name             : Dolby Digital
    Codec ID                    : A_AC3
    Duration                    : 2 h 15 min
    Bit rate mode               : Constant
    Bit rate                    : 448 kb/s
    Channel(s)                  : 6 channels
    Channel layout              : L R C LFE Ls Rs
    Sampling rate               : 48.0 kHz
    Frame rate                  : 31.250 FPS (1536 SPF)
    Compression mode            : Lossy
    Delay relative to video     : -5 ms
    Stream size                 : 433 MiB (10%)
    Title                       : Polaco [CinemaniaHDD]
    Language                    : Polish
    Service kind                : Complete Main
    Default                     : No
    Forced                      : No

    Text #1
    ID                          : 4
    Format                      : UTF-8
    Codec ID                    : S_TEXT/UTF8
    Codec ID/Info               : UTF-8 Plain Text
    Duration                    : 1 h 43 min
    Bit rate                    : 3 b/s
    Count of elements           : 83
    Stream size                 : 2.50 KiB (0%)
    Title                       : Forzados-SRT [CinemaniaHDD]
    Language                    : Spanish
    Default                     : Yes
    Forced                      : Yes

    Text #2
    ID                          : 5
    Format                      : UTF-8
    Codec ID                    : S_TEXT/UTF8
    Codec ID/Info               : UTF-8 Plain Text
    Duration                    : 2 h 13 min
    Bit rate                    : 50 b/s
    Count of elements           : 1410
    Stream size                 : 49.0 KiB (0%)
    Title                       : Español-SRT [CinemaniaHDD]
    Language                    : Spanish
    Default                     : No
    Forced                      : No

    Menu
    00:00:00.000                : en:Chapter 01
    00:09:41.625                : en:Chapter 02
    00:19:24.042                : en:Chapter 03
    00:29:15.292                : en:Chapter 04
    00:39:33.292                : en:Chapter 05
    00:50:01.375                : en:Chapter 06
    00:59:25.917                : en:Chapter 07
    01:10:33.042                : en:Chapter 08
    01:19:41.708                : en:Chapter 09
    01:35:35.542                : en:Chapter 10
    01:46:19.042                : en:Chapter 11
    02:02:42.708                : en:Chapter 12

  • Peso: 4.29 GiB

Sinopsis

Descargar The Hater (2020) HD 1080p Latino. Narra las manipulaciones del maquiavélico Tomek para conseguir el amor de Gabi, una chica que está en un estatus social por encima del suyo. Él es en realidad un trepador de la era digital que no le importa producir un caos en la red con tal de llegar a su amor imposible.

Español Latino AC3 5.1 – Polaco AC3 5.1

Ficha técnica

  • Titulo original: Sala samobójców. Hejter
  • Fecha de lanzamiento: 06-03-2020 (Poland)
  • Director: Jan Komasa
  • Género: Drama, HD 1080p, Suspenso
  • Puntuación: 0.0 0 votos
  • Duración:
    2h 15m

Video trailer de la película

Enlaces de descarga

Rip de Bluray

Descargar The Hater (2020) HD 1080p Latino




Aportes de DPeliculasHDmega la pass es:dpeliculashdmega.org Aportes de CinemaniaHD la pass es:cinemaniahdd.com
Guardado en : Drama , HD 1080p , Suspenso

Películas relacionadas

  • Hanna (2011) 1080p Latino

    Hanna (2011) 1080p Latino

    2011
    Hanna (2011) 1080p Latino

    0.0 1h 51m 2011

    Descargar Hanna (2011) 1080p Latino. Hanna tiene 16 años. Es brillante, curiosa y una devota hija. Excepcionalmente,...

    Director: Sheila Paige

    Género: Acción

    Actores: Vincent Montuel

  • Hanna (2011) Full HD 1080p Latino

    Hanna (2011) Full HD 1080p Latino

    2011
    Hanna (2011) Full HD 1080p Latino

    5.0 1h 51m 2011

    Descargar Hanna (2011) Full HD 1080p Latino. Hanna tiene 16 años. Es brillante, curiosa y una devota...

    Director: Sheila Paige

    Género: Acción

    Actores: Vincent Montuel

  • Hanna (2011) REMUX 1080p Latino

    Hanna (2011) REMUX 1080p Latino

    2011
    Hanna (2011) REMUX 1080p Latino

    5.0 1h 51m 2011

    Descargar Hanna (2011) REMUX 1080p Latino. Hanna tiene 16 años. Es brillante, curiosa y una devota hija....

    Director: Sheila Paige

    Género: Acción

    Actores: Vincent Montuel

  • Looper: Asesino Del Futuro (2012) 1080p Latino

    Looper: Asesino Del Futuro (2012) 1080p Latino

    2012
    Looper: Asesino Del Futuro (2012) 1080p Latino

    0.0 1h 58m 2012

    Descargar Looper: Asesino Del Futuro (2012) 1080p Latino. Como en 2072 los asesinatos están terminantemente...

    Director: Samuel W. Sullivan

    Género: Acción

    Actores: Xu Qing

Comentarios 0