Hasta tiene tus ojos (2017) 1080p Latino

1.403 vistas
1 estrella2 estrellas3 estrellas4 estrellas5 estrellas (1 votos, promedio: 5,00 de 5)
Cargando…

Información de Hasta tiene tus ojos (2017) 1080p Latino

Datos de la película

  • Calidad: 1080p
  • Audio: Español Latino AC3 5.1 BLURAY- Frances AC3 5.1 BLURAY
  • Subtitulos: Español Latino SRT
  • Resolución: 1920x800p
  • Formato: MKV
  • Codec: H.264
  • Encoder: Dpelis
  • Mediainfo: Clic para Mostrar Datos Ver
  • He.even.has.your.eyes.2016.1080pLatino.mkv
    Format                      : Matroska
    Format version              : Version 4 / Version 2
    File size                   : 2.78 GiB
    Duration                    : 1 h 34 min
    Overall bit rate            : 4 190 kb/s
    Encoded date                : UTC 2017-06-06 03:52:13 / UTC 2017-06-06T01:35:51Z
    Writing application         : mkvmerge v10.0.0 ('To Drown In You') 64bit
    Writing library             : libebml v1.3.4 + libmatroska v1.4.5 / Lavf57.7.2

    Video
    ID                          : 1
    Format                      : AVC
    Format/Info                 : Advanced Video Codec
    Format profile              : High@L4.1
    Format settings, CABAC      : Yes
    Format settings, ReFrames   : 4 frames
    Codec ID                    : V_MPEG4/ISO/AVC
    Duration                    : 1 h 34 min
    Bit rate                    : 3 500 kb/s
    Width                       : 1 920 pixels
    Height                      : 800 pixels
    Display aspect ratio        : 2.40:1
    Frame rate mode             : Constant
    Frame rate                  : 23.976 (24000/1001) FPS
    Color space                 : YUV
    Chroma subsampling          : 4:2:0
    Bit depth                   : 8 bits
    Scan type                   : Progressive
    Bits/(Pixel*Frame)          : 0.095
    Stream size                 : 2.22 GiB (80%)
    Writing library             : x264 core 148 r2708 86b7198
    Encoding settings           : cabac=1 / ref=3 / deblock=1:0:0 / analyse=0x3:0x113 / me=hex / subme=7 / psy=1 / psy_rd=1.00:0.00 / mixed_ref=1 / me_range=16 / chroma_me=1 / trellis=1 / 8x8dct=1 / cqm=0 / deadzone=21,11 / fast_pskip=1 / chroma_qp_offset=-2 / threads=25 / lookahead_threads=4 / sliced_threads=0 / nr=0 / decimate=1 / interlaced=0 / bluray_compat=0 / constrained_intra=0 / bframes=3 / b_pyramid=2 / b_adapt=1 / b_bias=0 / direct=1 / weightb=1 / open_gop=0 / weightp=2 / keyint=240 / keyint_min=24 / scenecut=40 / intra_refresh=0 / rc_lookahead=40 / rc=abr / mbtree=1 / bitrate=3500 / ratetol=1.0 / qcomp=0.60 / qpmin=0 / qpmax=69 / qpstep=4 / vbv_maxrate=62500 / vbv_bufsize=78125 / nal_hrd=none / filler=0 / ip_ratio=1.40 / aq=1:1.00
    Default                     : Yes
    Forced                      : No
    Color range                 : Limited
    Color primaries             : BT.709
    Transfer characteristics    : BT.709
    Matrix coefficients         : BT.709
    Statistics Tags Issue       : mkvmerge v10.0.0 ('To Drown In You') 64bit 2017-06-06 03:52:13 / mkvmerge v10.0.0 ('To Drown In You') 64bit 2017-06-06 03:52:13 / UTC 2017-06-06T01:35:51Z
    FromStats_BitRate           : 3429452
    FromStats_Duration          : 01:34:45.222000000
    FromStats_FrameCount        : 136309
    FromStats_StreamSize        : 2437149564

    Audio #1
    ID                          : 2
    Format                      : AC-3
    Format/Info                 : Audio Coding 3
    Format settings, Endianness : Big
    Codec ID                    : A_AC3
    Duration                    : 1 h 34 min
    Bit rate mode               : Constant
    Bit rate                    : 384 kb/s
    Channel(s)                  : 6 channels
    Channel positions           : Front: L C R, Side: L R, LFE
    Sampling rate               : 48.0 kHz
    Frame rate                  : 31.250 FPS (1536 spf)
    Bit depth                   : 16 bits
    Compression mode            : Lossy
    Delay relative to video     : -5 ms
    Stream size                 : 261 MiB (9%)
    Title                       : Surround
    Language                    : Spanish
    Service kind                : Complete Main
    Default                     : Yes
    Forced                      : No
    Statistics Tags Issue       : mkvmerge v10.0.0 ('To Drown In You') 64bit 2017-06-06 03:52:13 / mkvmerge v10.0.0 ('To Drown In You') 64bit 2017-06-06 03:52:13 / UTC 2017-06-06T01:35:51Z
    FromStats_BitRate           : 384000
    FromStats_Duration          : 01:34:59.200000000
    FromStats_FrameCount        : 178100
    FromStats_StreamSize        : 273561600

    Audio #2
    ID                          : 3
    Format                      : AC-3
    Format/Info                 : Audio Coding 3
    Format settings, Endianness : Big
    Codec ID                    : A_AC3
    Duration                    : 1 h 34 min
    Bit rate mode               : Constant
    Bit rate                    : 384 kb/s
    Channel(s)                  : 6 channels
    Channel positions           : Front: L C R, Side: L R, LFE
    Sampling rate               : 48.0 kHz
    Frame rate                  : 31.250 FPS (1536 spf)
    Bit depth                   : 16 bits
    Compression mode            : Lossy
    Delay relative to video     : -5 ms
    Stream size                 : 261 MiB (9%)
    Title                       : Surround
    Language                    : French
    Service kind                : Complete Main
    Default                     : No
    Forced                      : No
    Statistics Tags Issue       : mkvmerge v10.0.0 ('To Drown In You') 64bit 2017-06-06 03:52:13 / mkvmerge v10.0.0 ('To Drown In You') 64bit 2017-06-06 03:52:13 / UTC 2017-06-06T01:35:51Z
    FromStats_BitRate           : 384000
    FromStats_Duration          : 01:34:45.248000000
    FromStats_FrameCount        : 177664
    FromStats_StreamSize        : 272891904

    Text
    ID                          : 4
    Format                      : UTF-8
    Codec ID                    : S_TEXT/UTF8
    Codec ID/Info               : UTF-8 Plain Text
    Language                    : Spanish
    Default                     : Yes
    Forced                      : No
    Statistics Tags Issue       : mkvmerge v10.0.0 ('To Drown In You') 64bit 2017-06-06 03:52:13 / mkvmerge v10.0.0 ('To Drown In You') 64bit 2017-06-06 03:52:13 / UTC 2017-06-06T01:35:51Z
    FromStats_BitRate           : 70
    FromStats_Duration          : 01:34:06.146000000
    FromStats_FrameCount        : 1729
    FromStats_StreamSize        : 49684

    Menu
    00:00:00.000                : :Chapter 1
    00:08:30.802                : :Chapter 2
    00:16:40.374                : :Chapter 3
    00:24:56.870                : :Chapter 4
    00:33:29.716                : :Chapter 5
    00:42:45.563                : :Chapter 6
    00:51:23.038                : :Chapter 7
    00:59:21.600                : :Chapter 8
    01:07:41.724                : :Chapter 9
    01:15:05.418                : :Chapter 10
    01:23:12.654                : :Chapter 11
    01:30:42.437                : :Chapter 12
    01:34:44.387                : :Chapter 13

  • Peso: 2.78 GB

Sinopsis

Paul está casado con Sali. Todo sería perfecto si pudieran tener un hijo. Un día, Sali recibe la llamada que estaban esperando desde hace tanto tiempo: su expediente de adopción es aprobado. El niño es precioso, tiene 6 meses, se llama Benjamin, es rubio con ojos azules… y es blanco. Para la familia de Sali, de raza negra, esto supone un gran choque.

Ficha técnica

  • Titulo original: He Even Has Your Eyes
  • Fecha de lanzamiento: 18-01-2017 (France)
  • Director: Lucien Jean-Baptiste
  • Género: Comedia
  • Puntuación: 5.0 1 votos
  • Duración:
    1h 35m

Video trailer de la película

Enlaces de descarga

Rip de Bluray

Descargar Hasta tiene tus ojos (2017) 1080p Latino




Aportes de DPeliculasHDmega la pass es:dpeliculashdmega.org Aportes de CinemaniaHD la pass es:cinemaniahdd.com
Guardado en : Comedia

Películas relacionadas

  • Escuela Nocturnas (2018) WEBDL 1080p Latino

    2018
    Escuela Nocturnas (2018) WEBDL 1080p Latino

    3.0 1h 51m 2018

    A Teddy Walker (Kevin Hart) le acaban de decir que tiene dislexia, además de otras discapacidades de...

    Director: Malcolm D. Lee

    Género: Comedia

    Actores: Yvonne Orji

  • Leprechaun Returns (2018) WEBDL 1080p Latino

    2019
    Leprechaun Returns (2018) WEBDL 1080p Latino

    0.0 1h 32m 2019

    Un grupo de hermanas de la hermandad involuntaria despiertan accidentalmente al Leprechaun asesino en...

    Director: Steven Kostanski

    Género: Comedia

    Actores: Taylor Spreitler

  • Ni en tus sueños (2010) Full 1080p Latino

    2010
    Ni en tus sueños (2010) Full 1080p Latino

    5.0 1h 44m 2010

    Descargar Ni en tus sueños (2010) Full 1080p Latino, Mega, Google Drive. Kirk (Jay Baruchel, "Tropic...

    Director: Richard L. Fox

    Género: Comedia

    Actores: Yan Xi

  • Ni en tus sueños (2010) 1080p Latino

    2010
    Ni en tus sueños (2010) 1080p Latino

    0.0 1h 44m 2010

    Descargar Ni en tus sueños (2010) 1080p Latino, Mega, Google Drive. Kirk (Jay Baruchel, "Tropic Thunder")...

    Director: Richard L. Fox

    Género: Comedia

    Actores: Yan Xi

Comentarios 3
  • Carlo - 07 junio, 2017

    Sigue con subtitulos pegados en español en el video

    • dpelis - 08 junio, 2017

      fui un loco, la resubi pero no guarde cambios en el paste, ahora si , el rar tiene como titulo reparado. Saludos

  • dpelis - 07 junio, 2017

    Gracias avisar, REPARADA POR SUBTITULOS PEGADOS