×

¿Problemas para descargar con Mozilla, EDGE? Deshabilita la opción "Abrir vinculos en una pestaña nueva" tal como lo muestra ésta imagen.

Harry Potter y las reliquias de la muerte – Parte 2 (2011) REMUX 1080p Latino

568 vistas

Información de Harry Potter y las reliquias de la muerte – Parte 2 (2011) REMUX 1080p Latino

Datos de la película

  • Calidad: Full 1080p
  • Audio: Español Latino AC3 5.1 BLURAY - Ingles DTS 5.1 BLURAY
  • Subtitulos: Español Latino SRT- FORZADOS SRT
  • Resolución: 1920x1080p
  • Formato: MKV
  • Codec: H.264
  • Encoder: Dracarys
  • Mediainfo: Clic para Mostrar Datos Ver
  • Format                      : Matroska
    Format version              : Version 4
    File size                   : 19.9 GiB
    Duration                    : 2 h 10 min
    Overall bit rate mode       : Variable
    Overall bit rate            : 21.8 Mb/s
    Movie name                  : CinemaniaHDD.net
    Encoded date                : UTC 2020-04-26 23:32:45
    Writing application         : mkvmerge v38.0.0 ('The Silent Type') 64-bit
    Writing library             : libebml v1.3.9 + libmatroska v1.5.2

    Video
    ID                          : 1
    Format                      : AVC
    Format/Info                 : Advanced Video Codec
    Format profile              : High@L4.1
    Format settings             : CABAC / 2 Ref Frames
    Format settings, CABAC      : Yes
    Format settings, ReFrames   : 2 frames
    Codec ID                    : V_MPEG4/ISO/AVC
    Duration                    : 2 h 10 min
    Bit rate mode               : Variable
    Bit rate                    : 17.3 Mb/s
    Width                       : 1 920 pixels
    Height                      : 1 080 pixels
    Display aspect ratio        : 16:9
    Frame rate mode             : Constant
    Frame rate                  : 23.976 (24000/1001) FPS
    Color space                 : YUV
    Chroma subsampling          : 4:2:0
    Bit depth                   : 8 bits
    Scan type                   : Progressive
    Bits/(Pixel*Frame)          : 0.349
    Stream size                 : 15.8 GiB (79%)
    Language                    : English
    Default                     : Yes
    Forced                      : No

    Audio #1
    ID                          : 2
    Format                      : AC-3
    Format/Info                 : Audio Coding 3
    Commercial name             : Dolby Digital
    Codec ID                    : A_AC3
    Duration                    : 2 h 10 min
    Bit rate mode               : Constant
    Bit rate                    : 640 kb/s
    Channel(s)                  : 6 channels
    Channel layout              : L R C LFE Ls Rs
    Sampling rate               : 48.0 kHz
    Frame rate                  : 31.250 FPS (1536 SPF)
    Bit depth                   : 16 bits
    Compression mode            : Lossy
    Stream size                 : 597 MiB (3%)
    Language                    : Spanish
    Service kind                : Complete Main
    Default                     : Yes
    Forced                      : No

    Audio #2
    ID                          : 3
    Format                      : DTS XLL
    Format/Info                 : Digital Theater Systems
    Commercial name             : DTS-HD Master Audio
    Codec ID                    : A_DTS
    Duration                    : 2 h 10 min
    Bit rate mode               : Variable
    Bit rate                    : 3 841 kb/s
    Channel(s)                  : 6 channels
    Channel layout              : C L R Ls Rs LFE
    Sampling rate               : 48.0 kHz
    Frame rate                  : 93.750 FPS (512 SPF)
    Bit depth                   : 24 bits
    Compression mode            : Lossless
    Stream size                 : 3.50 GiB (18%)
    Language                    : English
    Default                     : No
    Forced                      : No

    Text #1
    ID                          : 4
    Format                      : UTF-8
    Codec ID                    : S_TEXT/UTF8
    Codec ID/Info               : UTF-8 Plain Text
    Duration                    : 17 s 392 ms
    Bit rate                    : 100 b/s
    Count of elements           : 4
    Stream size                 : 218 Bytes (0%)
    Title                       : SRT-Forzados
    Language                    : Spanish
    Default                     : Yes
    Forced                      : No

    Text #2
    ID                          : 5
    Format                      : UTF-8
    Codec ID                    : S_TEXT/UTF8
    Codec ID/Info               : UTF-8 Plain Text
    Duration                    : 1 h 59 min
    Bit rate                    : 32 b/s
    Count of elements           : 922
    Stream size                 : 28.3 KiB (0%)
    Title                       : SRT-Completos
    Language                    : Spanish
    Default                     : No
    Forced                      : No

    Text #3
    ID                          : 6
    Format                      : PGS
    Muxing mode                 : zlib
    Codec ID                    : S_HDMV/PGS
    Codec ID/Info               : Picture based subtitle format used on BDs/HD-DVDs
    Duration                    : 2 h 8 min
    Bit rate                    : 15.9 kb/s
    Count of elements           : 1860
    Stream size                 : 14.6 MiB (0%)
    Title                       : PGS-Completos
    Language                    : Spanish
    Default                     : No
    Forced                      : No

    Menu
    00:00:00.000                : en:Chapter 1
    00:02:58.220                : en:Chapter 2
    00:06:21.172                : en:Chapter 3
    00:10:21.871                : en:Chapter 4
    00:14:27.992                : en:Chapter 5
    00:20:05.621                : en:Chapter 6
    00:22:47.783                : en:Chapter 7
    00:25:38.620                : en:Chapter 8
    00:30:46.803                : en:Chapter 9
    00:34:33.655                : en:Chapter 10
    00:40:32.263                : en:Chapter 11
    00:45:52.249                : en:Chapter 12
    00:50:15.471                : en:Chapter 13
    00:54:41.027                : en:Chapter 14
    00:59:01.246                : en:Chapter 15
    01:03:42.068                : en:Chapter 16
    01:07:06.063                : en:Chapter 17
    01:11:24.488                : en:Chapter 18
    01:14:38.932                : en:Chapter 19
    01:23:40.849                : en:Chapter 20
    01:29:17.727                : en:Chapter 21
    01:31:25.021                : en:Chapter 22
    01:36:37.666                : en:Chapter 23
    01:41:09.104                : en:Chapter 24
    01:46:42.312                : en:Chapter 25
    01:50:18.361                : en:Chapter 26
    01:54:16.683                : en:Chapter 27
    01:58:12.877                : en:Chapter 28

  • Peso: 19.9 GiB

Sinopsis

La segunda parte de la batalla final entre las fuerzas del bien y el mal. El juego nunca ha sido tan peligroso y nadie está a salvo. Se acerca el momento de la confrontación final entre Harry Potter y Lord Voldemort. Todo termina aquí…

Ficha técnica

  • Titulo original: Harry Potter and the Deathly Hallows: Part 2
  • Fecha de lanzamiento: 07-07-2011 (United Kingdom, United States of America)
  • Director: David Yates
  • Género: Aventura, Fantasía, Remux

Video trailer de la película

Enlaces de descarga

Rip de Bluray

Descargar Harry Potter y las reliquias de la muerte – Parte 2 (2011) REMUX 1080p Latino




Aportes de DPeliculasHDmega la pass es:dpeliculashdmega.org Aportes de CinemaniaHD la pass es:cinemaniahdd.com
Guardado en : Aventura , Fantasía , Remux

Películas relacionadas

  • Abracadabra 2 (2022) D+ WEB-DL 4K UHD HDR Latino

    Abracadabra 2 (2022) D+ WEB-DL 4K UHD HDR Latino

    2022
    Abracadabra 2 (2022) D+ WEB-DL 4K UHD HDR Latino

    1h 45m 2022

    Descargar Abracadabra 2 (2022) D+ WEB-DL 4K UHD HDR Latino. Han pasado 29 años desde que alguien encendió...

    Director: Anne Fletcher

    Género: 4K HDR

    Actores: Whitney Peak

  • Abracadabra 2 (2022) D+ WEB-DL 1080p Latino

    Abracadabra 2 (2022) D+ WEB-DL 1080p Latino

    2022
    Abracadabra 2 (2022) D+ WEB-DL 1080p Latino

    1h 45m 2022

    Descargar Abracadabra 2 (2022) D+ WEB-DL 1080p Latino. Han pasado 29 años desde que alguien encendió...

    Director: Anne Fletcher

    Género: Comedia

    Actores: Whitney Peak

  • Wire Room (2022) REMUX 1080p Latino

    Wire Room (2022) REMUX 1080p Latino

    2022
    Wire Room (2022) REMUX 1080p Latino

    1h 37m 2022

    Descargar Wire Room (2022) REMUX 1080p Latino. Mientras está de servicio en la sala de cables, un agente...

    Director: Matt Eskandari

    Género: Acción

    Actores: Texas Battle

descargar Harry Potter y las reliquias de la muerte – Parte 2 (2011) REMUX 1080p Latino Full 1080p 1080p gratis, Harry Potter y las reliquias de la muerte – Parte 2 (2011) REMUX 1080p Latino Full 1080p mega 1 link, Harry Potter y las reliquias de la muerte – Parte 2 (2011) REMUX 1080p Latino Full 1080p pelicula completa, descargar Harry Potter y las reliquias de la muerte – Parte 2 (2011) REMUX 1080p Latino Full 1080p gratis en mega.

Harry Potter y las reliquias de la muerte – Parte 2 (2011) REMUX 1080p Latino pelicula full hd, Harry Potter y las reliquias de la muerte – Parte 2 (2011) REMUX 1080p Latino mega latino, Harry Potter y las reliquias de la muerte – Parte 2 (2011) REMUX 1080p Latino 4k latino, Harry Potter y las reliquias de la muerte – Parte 2 (2011) REMUX 1080p Latino pelicula completa, Harry Potter y las reliquias de la muerte – Parte 2 (2011) REMUX 1080p Latino descargar gratis, descargar Harry Potter y las reliquias de la muerte – Parte 2 (2011) REMUX 1080p Latino pelicula latino, Harry Potter y las reliquias de la muerte – Parte 2 (2011) REMUX 1080p Latino 1 link mega, Harry Potter y las reliquias de la muerte – Parte 2 (2011) REMUX 1080p Latino 1 link google drive, Harry Potter y las reliquias de la muerte – Parte 2 (2011) REMUX 1080p Latino hd 1080p latino.
Comentarios 2
  • Ivan - 01 mayo, 2020

    En 4k podrían resubirlas están todos los links caidos

    • Dracarys - 02 mayo, 2020

      links de mega online