×

¿Problemas para descargar con Mozilla, EDGE? Deshabilita la opción "Abrir vinculos en una pestaña nueva" tal como lo muestra ésta imagen.

Harry Potter y las reliquias de la muerte – Parte 2 (2011) REMUX 1080p Latino

1.060 vistas

Información de Harry Potter y las reliquias de la muerte – Parte 2 (2011) REMUX 1080p Latino

Datos de la película

  • Calidad: Full 1080p
  • Audio: Español Latino AC3 5.1 BLURAY - Ingles DTS 5.1 BLURAY
  • Subtitulos: Español Latino SRT- FORZADOS SRT
  • Resolución: 1920x1080p
  • Formato: MKV
  • Codec: H.264
  • Encoder: Dracarys
  • Mediainfo: Clic para Mostrar Datos Ver
  • Format                      : Matroska
    Format version              : Version 4
    File size                   : 19.9 GiB
    Duration                    : 2 h 10 min
    Overall bit rate mode       : Variable
    Overall bit rate            : 21.8 Mb/s
    Movie name                  : Harry Potter y las reliquias de la muerte – Parte 2 (2011) REMUX 1080p Latino
    Encoded date                : UTC 2023-09-14 22:08:14
    Writing application         : mkvmerge v47.0.0 ('Black Flag') 64-bit
    Writing library             : libebml v1.3.10 + libmatroska v1.5.2

    Video
    ID                          : 1
    Format                      : AVC
    Format/Info                 : Advanced Video Codec
    Format profile              : High@L4.1
    Format settings             : CABAC / 2 Ref Frames
    Format settings, CABAC      : Yes
    Format settings, Reference  : 2 frames
    Codec ID                    : V_MPEG4/ISO/AVC
    Duration                    : 2 h 10 min
    Bit rate mode               : Variable
    Bit rate                    : 17.3 Mb/s
    Width                       : 1 920 pixels
    Height                      : 1 080 pixels
    Display aspect ratio        : 16:9
    Frame rate mode             : Constant
    Frame rate                  : 23.976 (24000/1001) FPS
    Color space                 : YUV
    Chroma subsampling          : 4:2:0
    Bit depth                   : 8 bits
    Scan type                   : Progressive
    Bits/(Pixel*Frame)          : 0.349
    Stream size                 : 15.8 GiB (79%)
    Default                     : Yes
    Forced                      : No

    Audio #1
    ID                          : 2
    Format                      : AC-3
    Format/Info                 : Audio Coding 3
    Commercial name             : Dolby Digital
    Codec ID                    : A_AC3
    Duration                    : 2 h 10 min
    Bit rate mode               : Constant
    Bit rate                    : 640 kb/s
    Channel(s)                  : 6 channels
    Channel layout              : L R C LFE Ls Rs
    Sampling rate               : 48.0 kHz
    Frame rate                  : 31.250 FPS (1536 SPF)
    Compression mode            : Lossy
    Stream size                 : 597 MiB (3%)
    Language                    : Spanish
    Service kind                : Complete Main
    Default                     : Yes
    Forced                      : No

    Audio #2
    ID                          : 3
    Format                      : DTS XLL
    Format/Info                 : Digital Theater Systems
    Commercial name             : DTS-HD Master Audio
    Codec ID                    : A_DTS
    Duration                    : 2 h 10 min
    Bit rate mode               : Variable
    Bit rate                    : 3 841 kb/s
    Channel(s)                  : 6 channels
    Channel layout              : C L R Ls Rs LFE
    Sampling rate               : 48.0 kHz
    Frame rate                  : 93.750 FPS (512 SPF)
    Bit depth                   : 24 bits
    Compression mode            : Lossless
    Stream size                 : 3.50 GiB (18%)
    Language                    : English
    Default                     : No
    Forced                      : No

    Text #1
    ID                          : 4
    Format                      : PGS
    Muxing mode                 : zlib
    Codec ID                    : S_HDMV/PGS
    Codec ID/Info               : Picture based subtitle format used on BDs/HD-DVDs
    Duration                    : 2 h 8 min
    Bit rate                    : 15.9 kb/s
    Frame rate                  : 0.241 FPS
    Count of elements           : 1860
    Stream size                 : 14.6 MiB (0%)
    Language                    : Spanish
    Default                     : No
    Forced                      : No

    Text #2
    ID                          : 5
    Format                      : PGS
    Muxing mode                 : zlib
    Codec ID                    : S_HDMV/PGS
    Codec ID/Info               : Picture based subtitle format used on BDs/HD-DVDs
    Duration                    : 2 h 10 min
    Bit rate                    : 238 b/s
    Frame rate                  : 0.016 FPS
    Count of elements           : 122
    Stream size                 : 228 KiB (0%)
    Language                    : Spanish
    Default                     : Yes
    Forced                      : No

    Menu
    00:00:00.000                : 00:00:00.000
    00:02:58.219                : 00:02:58.219
    00:06:21.172                : 00:06:21.172
    00:10:21.871                : 00:10:21.871
    00:14:27.992                : 00:14:27.992
    00:20:05.621                : 00:20:05.621
    00:22:47.783                : 00:22:47.783
    00:25:38.620                : 00:25:38.620
    00:30:46.803                : 00:30:46.803
    00:34:33.654                : 00:34:33.654
    00:40:32.263                : 00:40:32.263
    00:45:52.249                : 00:45:52.249
    00:50:15.470                : 00:50:15.470
    00:54:41.027                : 00:54:41.027
    00:59:01.245                : 00:59:01.245
    01:03:42.067                : 01:03:42.067
    01:07:06.063                : 01:07:06.063
    01:11:24.488                : 01:11:24.488
    01:14:38.932                : 01:14:38.932
    01:23:40.848                : 01:23:40.848
    01:29:17.727                : 01:29:17.727
    01:31:25.020                : 01:31:25.020
    01:36:37.666                : 01:36:37.666
    01:41:09.104                : 01:41:09.104
    01:46:42.312                : 01:46:42.312
    01:50:18.361                : 01:50:18.361
    01:54:16.682                : 01:54:16.682
    01:58:12.876                : 01:58:12.876
    02:10:26.609                : 02:10:26.609

  • Peso: 19.9 GiB

Sinopsis

La segunda parte de la batalla final entre las fuerzas del bien y el mal. El juego nunca ha sido tan peligroso y nadie está a salvo. Se acerca el momento de la confrontación final entre Harry Potter y Lord Voldemort. Todo termina aquí…

Ficha técnica

  • Titulo original: Harry Potter and the Deathly Hallows: Part 2
  • Fecha de lanzamiento: 07-07-2011 (United Kingdom, United States of America)
  • Director: David Yates
  • Género: Aventura, Fantasía, Remux

Video trailer de la película

Enlaces de descarga

Rip de Bluray

Descargar Harry Potter y las reliquias de la muerte – Parte 2 (2011) REMUX 1080p Latino




Aportes de DPeliculasHDmega la pass es:dpeliculashdmega.org Aportes de CinemaniaHD la pass es:cinemaniahdd.com Aportes recientes:cinemaniahdd.net
Guardado en : Aventura , Fantasía , Remux

Películas relacionadas

  • Red de venganza (2023) REMUX 1080p Latino

    Red de venganza (2023) REMUX 1080p Latino

    2023
    Red de venganza (2023) REMUX 1080p Latino

    1h 25m 2023

    Descargar Red de venganza (2023) REMUX 1080p Latino. Analiza los problemas que surgen entre una madre...

    Director: Amy Redford

    Género: Drama

    Actores: Summer Phoenix

  • The Shift (2023) AMZN WEB-DL 1080p Latino

    The Shift (2023) AMZN WEB-DL 1080p Latino

    2023
    The Shift (2023) AMZN WEB-DL 1080p Latino

    1h 53m 2023

    Descargar The Shift (2023) AMZN WEB-DL 1080p Latino. Kevin viaja a través de los mundos para reunirse...

    Director: Brock Heasley

    Género: Ciencia ficción

    Actores: Teck

  • Kung Fu Panda 4 (2024) 1080p Latino-CMHDD

    Kung Fu Panda 4 (2024) 1080p Latino-CMHDD

    2024
    Kung Fu Panda 4 (2024) 1080p Latino-CMHDD

    1h 34m 2024

    Descargar Kung Fu Panda 4 (2024) 1080p Latino-CMHDD. Po se prepara para ser el líder espiritual del...

    Director: Stephanie Ma Stine

    Género: Acción

    Actores: Viola Davis

  • Kung Fu Panda 4 (2024) Full HD 1080p Latino-CMHDD

    Kung Fu Panda 4 (2024) Full HD 1080p Latino-CMHDD

    2024
    Kung Fu Panda 4 (2024) Full HD 1080p Latino-CMHDD

    1h 34m 2024

    Descargar Kung Fu Panda 4 (2024) Full HD 1080p Latino-CMHDD. Po se prepara para ser el líder espiritual...

    Director: Stephanie Ma Stine

    Género: Acción

    Actores: Viola Davis

  • Kung Fu Panda 4 (2024) REMUX 1080p Latino-CMHDD

    Kung Fu Panda 4 (2024) REMUX 1080p Latino-CMHDD

    2024
    Kung Fu Panda 4 (2024) REMUX 1080p Latino-CMHDD

    1h 34m 2024

    Descargar Kung Fu Panda 4 (2024) REMUX 1080p Latino-CMHDD. Po se prepara para ser el líder espiritual...

    Director: Stephanie Ma Stine

    Género: Acción

    Actores: Viola Davis

descargar Harry Potter y las reliquias de la muerte – Parte 2 (2011) REMUX 1080p Latino Full 1080p 1080p gratis, Harry Potter y las reliquias de la muerte – Parte 2 (2011) REMUX 1080p Latino Full 1080p mega 1 link, Harry Potter y las reliquias de la muerte – Parte 2 (2011) REMUX 1080p Latino Full 1080p pelicula completa, descargar Harry Potter y las reliquias de la muerte – Parte 2 (2011) REMUX 1080p Latino Full 1080p gratis en mega.

Harry Potter y las reliquias de la muerte – Parte 2 (2011) REMUX 1080p Latino pelicula full hd, Harry Potter y las reliquias de la muerte – Parte 2 (2011) REMUX 1080p Latino mega latino, Harry Potter y las reliquias de la muerte – Parte 2 (2011) REMUX 1080p Latino 4k latino, Harry Potter y las reliquias de la muerte – Parte 2 (2011) REMUX 1080p Latino pelicula completa, Harry Potter y las reliquias de la muerte – Parte 2 (2011) REMUX 1080p Latino descargar gratis, descargar Harry Potter y las reliquias de la muerte – Parte 2 (2011) REMUX 1080p Latino pelicula latino, Harry Potter y las reliquias de la muerte – Parte 2 (2011) REMUX 1080p Latino 1 link mega, Harry Potter y las reliquias de la muerte – Parte 2 (2011) REMUX 1080p Latino 1 link google drive, Harry Potter y las reliquias de la muerte – Parte 2 (2011) REMUX 1080p Latino hd 1080p latino.
Comentarios 0