×

¿Problemas para descargar con Mozilla, EDGE? Deshabilita la opción "Abrir vinculos en una pestaña nueva" tal como lo muestra ésta imagen.

Harry Potter y las reliquias de la muerte – Parte 1 (2010) REMUX 1080p Latino

405 vistas

Información de Harry Potter y las reliquias de la muerte – Parte 1 (2010) REMUX 1080p Latino

Datos de la película

  • Calidad: Full 1080p
  • Audio: Español Latino AC3 5.1 BLURAY - Ingles DTS 5.1 BLURAY
  • Subtitulos: Español Latino SRT- FORZADOS SRT
  • Resolución: 1920x1080p
  • Formato: MKV
  • Codec: H.264
  • Encoder: Dracarys
  • Mediainfo: Clic para Mostrar Datos Ver
  • Format                      : Matroska
    Format version              : Version 4
    File size                   : 22.0 GiB
    Duration                    : 2 h 26 min
    Overall bit rate mode       : Variable
    Overall bit rate            : 21.6 Mb/s
    Movie name                  : CinemaniaHDD.net
    Encoded date                : UTC 2020-04-26 23:27:25
    Writing application         : mkvmerge v38.0.0 ('The Silent Type') 64-bit
    Writing library             : libebml v1.3.9 + libmatroska v1.5.2

    Video
    ID                          : 1
    Format                      : AVC
    Format/Info                 : Advanced Video Codec
    Format profile              : High@L4.1
    Format settings             : CABAC / 2 Ref Frames
    Format settings, CABAC      : Yes
    Format settings, ReFrames   : 2 frames
    Format settings, GOP        : M=1, N=10
    Codec ID                    : V_MPEG4/ISO/AVC
    Duration                    : 2 h 26 min
    Bit rate mode               : Variable
    Bit rate                    : 17.3 Mb/s
    Width                       : 1 920 pixels
    Height                      : 1 080 pixels
    Display aspect ratio        : 16:9
    Frame rate mode             : Constant
    Frame rate                  : 23.976 (24000/1001) FPS
    Color space                 : YUV
    Chroma subsampling          : 4:2:0
    Bit depth                   : 8 bits
    Scan type                   : Progressive
    Bits/(Pixel*Frame)          : 0.349
    Stream size                 : 17.7 GiB (80%)
    Language                    : English
    Default                     : Yes
    Forced                      : No

    Audio #1
    ID                          : 2
    Format                      : AC-3
    Format/Info                 : Audio Coding 3
    Commercial name             : Dolby Digital
    Codec ID                    : A_AC3
    Duration                    : 2 h 26 min
    Bit rate mode               : Constant
    Bit rate                    : 640 kb/s
    Channel(s)                  : 6 channels
    Channel layout              : L R C LFE Ls Rs
    Sampling rate               : 48.0 kHz
    Frame rate                  : 31.250 FPS (1536 SPF)
    Bit depth                   : 16 bits
    Compression mode            : Lossy
    Stream size                 : 669 MiB (3%)
    Language                    : Spanish
    Service kind                : Complete Main
    Default                     : Yes
    Forced                      : No

    Audio #2
    ID                          : 3
    Format                      : DTS XLL
    Format/Info                 : Digital Theater Systems
    Commercial name             : DTS-HD Master Audio
    Codec ID                    : A_DTS
    Duration                    : 2 h 26 min
    Bit rate mode               : Variable
    Bit rate                    : 3 587 kb/s
    Channel(s)                  : 6 channels
    Channel layout              : C L R Ls Rs LFE
    Sampling rate               : 48.0 kHz
    Frame rate                  : 93.750 FPS (512 SPF)
    Bit depth                   : 24 bits
    Compression mode            : Lossless
    Stream size                 : 3.66 GiB (17%)
    Language                    : English
    Default                     : No
    Forced                      : No

    Text #1
    ID                          : 4
    Format                      : UTF-8
    Codec ID                    : S_TEXT/UTF8
    Codec ID/Info               : UTF-8 Plain Text
    Duration                    : 50 min 50 s
    Bit rate                    : 0 b/s
    Count of elements           : 4
    Stream size                 : 133 Bytes (0%)
    Title                       : SRT-Forzados
    Language                    : Spanish
    Default                     : Yes
    Forced                      : No

    Text #2
    ID                          : 5
    Format                      : UTF-8
    Codec ID                    : S_TEXT/UTF8
    Codec ID/Info               : UTF-8 Plain Text
    Duration                    : 2 h 17 min
    Bit rate                    : 40 b/s
    Count of elements           : 1245
    Stream size                 : 40.5 KiB (0%)
    Title                       : SRT-Completos
    Language                    : Spanish
    Default                     : No
    Forced                      : No

    Text #3
    ID                          : 6
    Format                      : PGS
    Muxing mode                 : zlib
    Codec ID                    : S_HDMV/PGS
    Codec ID/Info               : Picture based subtitle format used on BDs/HD-DVDs
    Duration                    : 2 h 26 min
    Bit rate                    : 19.9 kb/s
    Count of elements           : 2502
    Stream size                 : 20.7 MiB (0%)
    Title                       : PGS-Completos
    Language                    : Spanish
    Default                     : No
    Forced                      : No

    Menu
    00:00:00.000                : en:Dark Times
    00:04:18.508                : en:Dark Lord Ascending
    00:09:46.628                : en:The Seven Potters
    00:15:16.207                : en:Aerial Ambush
    00:19:13.569                : en:Fallen Warrior
    00:26:04.229                : en:Dumbledore's Will
    00:31:37.771                : en:The Wedding
    00:35:43.308                : en:A Place to Hide
    00:41:37.537                : en:Kreacher's Tale
    00:45:45.618                : en:Theft of a Thief
    00:50:14.094                : en:Ministry Interior
    00:55:02.716                : en:Secret Files
    00:58:31.174                : en:Lifting the Locket
    01:03:41.359                : en:Forest Fugitives
    01:10:02.239                : en:Getting Too Close
    01:14:30.966                : en:Broken Ranks
    01:18:48.891                : en:Invitation to Dance
    01:22:17.641                : en:Clues Revealed
    01:24:55.131                : en:Godric's Hollow
    01:28:03.236                : en:Bathilda's Secret
    01:32:34.215                : en:The Silver Doe
    01:37:40.271                : en:Sword of Gryffindor
    01:42:37.609                : en:Lighting the Way Back
    01:47:54.176                : en:The Three Brothers
    01:53:48.154                : en:The Deathly Hallows
    01:57:31.002                : en:Snatchers Strike
    02:01:28.030                : en:Malfoy Manor
    02:05:42.201                : en:Dobby has No Master
    02:09:42.774                : en:Sleeping Friend
    02:13:16.071                : en:Grave Robber
    02:14:47.162                : en:End Credits

  • Peso: 22.0 GiB

Sinopsis

Una tarea casi imposible cae sobre los hombros de Harry: deberá encontrar y destruir los horrocruxes restantes para dar fin al reinado de Lord Voldemort. En el episodio final de la saga, el hechicero de 17 años parte junto con sus amigos Hermione Granger y Ron Weasley en un peligroso viaje por Inglaterra para encontrar los objetos que contienen los fragmentos del alma del Señor Tenebroso, los cuales garantizan su longevidad. Pero el camino no será fácil pues el lado oscuro adquiere más poder con cada minuto que pasa y las lealtades serán puestas a prueba. Harry deberá usar todos los conocimientos que gracias a Dumbledore ha adquirido sobre su enemigo para poder encontrar la forma de sobrevivir a esta última aventura.

Ficha técnica

  • Titulo original: Harry Potter and the Deathly Hallows: Part 1
  • Fecha de lanzamiento: 17-10-2010 (United Kingdom, United States of America)
  • Director: David Yates
  • Género: Aventura, Fantasía, Remux

Video trailer de la película

Enlaces de descarga

Rip de Bluray

Descargar Harry Potter y las reliquias de la muerte – Parte 1 (2010) REMUX 1080p Latino




Aportes de DPeliculasHDmega la pass es:dpeliculashdmega.org Aportes de CinemaniaHD la pass es:cinemaniahdd.com
Guardado en : Aventura , Fantasía , Remux

Películas relacionadas

descargar Harry Potter y las reliquias de la muerte – Parte 1 (2010) REMUX 1080p Latino Full 1080p 1080p gratis, Harry Potter y las reliquias de la muerte – Parte 1 (2010) REMUX 1080p Latino Full 1080p mega 1 link, Harry Potter y las reliquias de la muerte – Parte 1 (2010) REMUX 1080p Latino Full 1080p pelicula completa, descargar Harry Potter y las reliquias de la muerte – Parte 1 (2010) REMUX 1080p Latino Full 1080p gratis en mega.

Harry Potter y las reliquias de la muerte – Parte 1 (2010) REMUX 1080p Latino pelicula full hd, Harry Potter y las reliquias de la muerte – Parte 1 (2010) REMUX 1080p Latino mega latino, Harry Potter y las reliquias de la muerte – Parte 1 (2010) REMUX 1080p Latino 4k latino, Harry Potter y las reliquias de la muerte – Parte 1 (2010) REMUX 1080p Latino pelicula completa, Harry Potter y las reliquias de la muerte – Parte 1 (2010) REMUX 1080p Latino descargar gratis, descargar Harry Potter y las reliquias de la muerte – Parte 1 (2010) REMUX 1080p Latino pelicula latino, Harry Potter y las reliquias de la muerte – Parte 1 (2010) REMUX 1080p Latino 1 link mega, Harry Potter y las reliquias de la muerte – Parte 1 (2010) REMUX 1080p Latino 1 link google drive, Harry Potter y las reliquias de la muerte – Parte 1 (2010) REMUX 1080p Latino hd 1080p latino.
Comentarios 0