×

¿Problemas para descargar con Mozilla, EDGE? Deshabilita la opción "Abrir vinculos en una pestaña nueva" tal como lo muestra ésta imagen.

Harry Potter y la cámara secreta (2002) [Edicion Extendida] REMUX 1080p Latino

1.032 vistas

Información de Harry Potter y la cámara secreta (2002) [Edicion Extendida] REMUX 1080p Latino

Datos de la película

  • Calidad: Full 1080p
  • Audio: Español Latino AC3 5.1 BLURAY - Ingles DTS 5.1 BLURAY
  • Subtitulos: Español Latino SRT- FORZADOS SRT
  • Resolución: 1920x1080p
  • Formato: MKV
  • Codec: H.264
  • Encoder: Dracarys
  • Mediainfo: Clic para Mostrar Datos Ver
  • Format                      : Matroska
    Format version              : Version 4
    File size                   : 24.8 GiB
    Duration                    : 2 h 54 min
    Overall bit rate mode       : Variable
    Overall bit rate            : 20.3 Mb/s
    Movie name                  : Harry Potter y la cámara secreta (2002) [Edicion Extendida] REMUX 1080p Latino
    Encoded date                : UTC 2023-09-14 20:47:57
    Writing application         : mkvmerge v47.0.0 ('Black Flag') 64-bit
    Writing library             : libebml v1.3.10 + libmatroska v1.5.2

    Video
    ID                          : 1
    Format                      : VC-1
    Format profile              : Advanced@L3
    Codec ID                    : V_MS/VFW/FOURCC / WVC1
    Codec ID/Hint               : Microsoft
    Duration                    : 2 h 54 min
    Bit rate                    : 17.4 Mb/s
    Width                       : 1 920 pixels
    Height                      : 1 080 pixels
    Display aspect ratio        : 16:9
    Frame rate mode             : Constant
    Frame rate                  : 23.976 (24000/1001) FPS
    Color space                 : YUV
    Chroma subsampling          : 4:2:0
    Bit depth                   : 8 bits
    Scan type                   : Progressive
    Compression mode            : Lossy
    Bits/(Pixel*Frame)          : 0.349
    Stream size                 : 21.1 GiB (85%)
    Default                     : Yes
    Forced                      : No

    Audio #1
    ID                          : 2
    Format                      : AC-3
    Format/Info                 : Audio Coding 3
    Commercial name             : Dolby Digital
    Codec ID                    : A_AC3
    Duration                    : 2 h 54 min
    Bit rate mode               : Constant
    Bit rate                    : 640 kb/s
    Channel(s)                  : 6 channels
    Channel layout              : L R C LFE Ls Rs
    Sampling rate               : 48.0 kHz
    Frame rate                  : 31.250 FPS (1536 SPF)
    Compression mode            : Lossy
    Stream size                 : 798 MiB (3%)
    Language                    : Spanish
    Service kind                : Complete Main
    Default                     : Yes
    Forced                      : No

    Audio #2
    ID                          : 3
    Format                      : DTS XLL
    Format/Info                 : Digital Theater Systems
    Commercial name             : DTS-HD Master Audio
    Codec ID                    : A_DTS
    Duration                    : 2 h 54 min
    Bit rate mode               : Variable
    Bit rate                    : 2 311 kb/s
    Channel(s)                  : 6 channels
    Channel layout              : C L R Ls Rs LFE
    Sampling rate               : 48.0 kHz
    Frame rate                  : 93.750 FPS (512 SPF)
    Bit depth                   : 16 bits
    Compression mode            : Lossless
    Stream size                 : 2.82 GiB (11%)
    Title                       : Original
    Language                    : English
    Default                     : No
    Forced                      : No

    Text #1
    ID                          : 4
    Format                      : PGS
    Muxing mode                 : zlib
    Codec ID                    : S_HDMV/PGS
    Codec ID/Info               : Picture based subtitle format used on BDs/HD-DVDs
    Duration                    : 2 h 53 min
    Bit rate                    : 25.9 kb/s
    Frame rate                  : 0.321 FPS
    Count of elements           : 3348
    Stream size                 : 32.2 MiB (0%)
    Language                    : Spanish
    Default                     : No
    Forced                      : No

    Text #2
    ID                          : 5
    Format                      : PGS
    Muxing mode                 : zlib
    Codec ID                    : S_HDMV/PGS
    Codec ID/Info               : Picture based subtitle format used on BDs/HD-DVDs
    Duration                    : 2 h 54 min
    Bit rate                    : 194 b/s
    Frame rate                  : 0.007 FPS
    Count of elements           : 70
    Stream size                 : 249 KiB (0%)
    Language                    : Spanish
    Default                     : Yes
    Forced                      : No

    Menu
    00:00:00.000                : en:In a Cage
    00:03:00.972                : en:Dobby's Warning
    00:08:37.016                : en:Car Rescue
    00:11:31.024                : en:The Burrow
    00:14:48.554                : en:To Diagon Aley
    00:21:20.070                : en:Flourish and Blotts
    00:25:38.454                : en:Flying to Hogwarts
    00:29:31.520                : en:Whomping Willow
    00:32:32.242                : en:Not Expelled...Today
    00:35:25.290                : en:Mandrakes; Ron's Howler
    00:39:50.805                : en:Gilderoy Lockhart
    00:43:52.546                : en:Mudbloods and Murmurs
    00:48:40.125                : en:Writing on the Wall
    00:54:08.287                : en:About the Chamber
    00:58:08.276                : en:Rogue Bludger
    01:04:08.595                : en:No Longer Safe
    01:09:25.495                : en:Dueling Club
    01:14:12.740                : en:A Parselmouth
    01:20:33.078                : en:Nothing to Tell
    01:25:59.321                : en:Polyjuice Potion
    01:31:56.886                : en:Harry and Ron Transformed
    01:36:22.485                : en:The Diary
    01:41:54.984                : en:Tom Riddle
    01:46:02.815                : en:Petrified
    01:50:33.377                : en:Cornelius Fudge
    01:55:39.557                : en:Aragog
    02:00:30.473                : en:Spider Attack
    02:04:36.844                : en:Missing
    02:08:55.060                : en:Chamber of Secrets
    02:14:22.137                : en:Backfire
    02:17:38.625                : en:Heir of Slytherin
    02:23:01.156                : en:The Basilisk
    02:28:01.289                : en:Healing Powers
    02:31:34.794                : en:Out of the Hat
    02:34:49.071                : en:Dobby's Reward
    02:40:04.303                : en:Welcome Back
    02:45:11.944                : en:End Credits

  • Peso: 24.8 GiB

Sinopsis

Harry regresa a su segundo año a Hogwarts, pero descubre que cosas malas ocurren debido a que un sitio llamado la Cámara de los Secretos ha sido abierto por el heredero de Slytherin y hará que los hijos de muggles, los impuros, aparezcan petrificados misteriosamente por un animal monstruoso.

Ficha técnica

Video trailer de la película

Enlaces de descarga

Rip de Bluray

Descargar Harry Potter y la cámara secreta (2002) [Edicion Extendida] REMUX 1080p Latino




Aportes de DPeliculasHDmega la pass es:dpeliculashdmega.org Aportes de CinemaniaHD la pass es:cinemaniahdd.com Aportes recientes:cinemaniahdd.net
Guardado en : Aventura , Fantasía , Remux

Películas relacionadas

  • Red de venganza (2023) REMUX 1080p Latino

    Red de venganza (2023) REMUX 1080p Latino

    2023
    Red de venganza (2023) REMUX 1080p Latino

    1h 25m 2023

    Descargar Red de venganza (2023) REMUX 1080p Latino. Analiza los problemas que surgen entre una madre...

    Director: Amy Redford

    Género: Drama

    Actores: Summer Phoenix

  • The Shift (2023) AMZN WEB-DL 1080p Latino

    The Shift (2023) AMZN WEB-DL 1080p Latino

    2023
    The Shift (2023) AMZN WEB-DL 1080p Latino

    1h 53m 2023

    Descargar The Shift (2023) AMZN WEB-DL 1080p Latino. Kevin viaja a través de los mundos para reunirse...

    Director: Brock Heasley

    Género: Ciencia ficción

    Actores: Teck

  • Kung Fu Panda 4 (2024) 1080p Latino-CMHDD

    Kung Fu Panda 4 (2024) 1080p Latino-CMHDD

    2024
    Kung Fu Panda 4 (2024) 1080p Latino-CMHDD

    1h 34m 2024

    Descargar Kung Fu Panda 4 (2024) 1080p Latino-CMHDD. Po se prepara para ser el líder espiritual del...

    Director: Stephanie Ma Stine

    Género: Acción

    Actores: Viola Davis

  • Kung Fu Panda 4 (2024) Full HD 1080p Latino-CMHDD

    Kung Fu Panda 4 (2024) Full HD 1080p Latino-CMHDD

    2024
    Kung Fu Panda 4 (2024) Full HD 1080p Latino-CMHDD

    1h 34m 2024

    Descargar Kung Fu Panda 4 (2024) Full HD 1080p Latino-CMHDD. Po se prepara para ser el líder espiritual...

    Director: Stephanie Ma Stine

    Género: Acción

    Actores: Viola Davis

  • Kung Fu Panda 4 (2024) REMUX 1080p Latino-CMHDD

    Kung Fu Panda 4 (2024) REMUX 1080p Latino-CMHDD

    2024
    Kung Fu Panda 4 (2024) REMUX 1080p Latino-CMHDD

    1h 34m 2024

    Descargar Kung Fu Panda 4 (2024) REMUX 1080p Latino-CMHDD. Po se prepara para ser el líder espiritual...

    Director: Stephanie Ma Stine

    Género: Acción

    Actores: Viola Davis

descargar Harry Potter y la cámara secreta (2002) [Edicion Extendida] REMUX 1080p Latino Full 1080p 1080p gratis, Harry Potter y la cámara secreta (2002) [Edicion Extendida] REMUX 1080p Latino Full 1080p mega 1 link, Harry Potter y la cámara secreta (2002) [Edicion Extendida] REMUX 1080p Latino Full 1080p pelicula completa, descargar Harry Potter y la cámara secreta (2002) [Edicion Extendida] REMUX 1080p Latino Full 1080p gratis en mega.

Harry Potter y la cámara secreta (2002) [Edicion Extendida] REMUX 1080p Latino pelicula full hd, Harry Potter y la cámara secreta (2002) [Edicion Extendida] REMUX 1080p Latino mega latino, Harry Potter y la cámara secreta (2002) [Edicion Extendida] REMUX 1080p Latino 4k latino, Harry Potter y la cámara secreta (2002) [Edicion Extendida] REMUX 1080p Latino pelicula completa, Harry Potter y la cámara secreta (2002) [Edicion Extendida] REMUX 1080p Latino descargar gratis, descargar Harry Potter y la cámara secreta (2002) [Edicion Extendida] REMUX 1080p Latino pelicula latino, Harry Potter y la cámara secreta (2002) [Edicion Extendida] REMUX 1080p Latino 1 link mega, Harry Potter y la cámara secreta (2002) [Edicion Extendida] REMUX 1080p Latino 1 link google drive, Harry Potter y la cámara secreta (2002) [Edicion Extendida] REMUX 1080p Latino hd 1080p latino.
Comentarios 0