×

¿Problemas para descargar con Mozilla, EDGE? Deshabilita la opción "Abrir vinculos en una pestaña nueva" tal como lo muestra ésta imagen.

Harry Potter y el misterio del príncipe (2009) REMUX 1080p Latino

597 vistas

Información de Harry Potter y el misterio del príncipe (2009) REMUX 1080p Latino

Datos de la película

  • Calidad: Full 1080p
  • Audio: Español Latino AC3 5.1 BLURAY - Ingles AC3 5.1 BLURAY
  • Subtitulos: Español Latino SRT- FORZADOS SRT
  • Resolución: 1920x1080p
  • Formato: MKV
  • Codec: H.264
  • Encoder: Dracarys
  • Mediainfo: Clic para Mostrar Datos Ver
  • Format                      : Matroska
    Format version              : Version 4
    File size                   : 22.3 GiB
    Duration                    : 2 h 33 min
    Overall bit rate mode       : Variable
    Overall bit rate            : 20.8 Mb/s
    Movie name                  : CinemaniaHDD.net
    Encoded date                : UTC 2020-04-26 23:43:30
    Writing application         : mkvmerge v38.0.0 ('The Silent Type') 64-bit
    Writing library             : libebml v1.3.9 + libmatroska v1.5.2

    Video
    ID                          : 1
    Format                      : VC-1
    Format profile              : Advanced@L3
    Codec ID                    : V_MS/VFW/FOURCC / WVC1
    Codec ID/Hint               : Microsoft
    Duration                    : 2 h 33 min
    Bit rate                    : 17.9 Mb/s
    Width                       : 1 920 pixels
    Height                      : 1 080 pixels
    Display aspect ratio        : 16:9
    Frame rate mode             : Constant
    Frame rate                  : 23.976 (24000/1001) FPS
    Color space                 : YUV
    Chroma subsampling          : 4:2:0
    Bit depth                   : 8 bits
    Scan type                   : Progressive
    Compression mode            : Lossy
    Bits/(Pixel*Frame)          : 0.361
    Stream size                 : 19.2 GiB (86%)
    Language                    : English
    Default                     : Yes
    Forced                      : No

    Audio #1
    ID                          : 2
    Format                      : AC-3
    Format/Info                 : Audio Coding 3
    Commercial name             : Dolby Digital
    Codec ID                    : A_AC3
    Duration                    : 2 h 33 min
    Bit rate mode               : Constant
    Bit rate                    : 640 kb/s
    Channel(s)                  : 6 channels
    Channel layout              : L R C LFE Ls Rs
    Sampling rate               : 48.0 kHz
    Frame rate                  : 31.250 FPS (1536 SPF)
    Bit depth                   : 16 bits
    Compression mode            : Lossy
    Stream size                 : 703 MiB (3%)
    Title                       : AC3
    Language                    : Spanish
    Service kind                : Complete Main
    Default                     : Yes
    Forced                      : No

    Audio #2
    ID                          : 3
    Format                      : MLP FBA
    Format/Info                 : Meridian Lossless Packing FBA
    Commercial name             : Dolby TrueHD
    Codec ID                    : A_TRUEHD
    Duration                    : 2 h 33 min
    Bit rate mode               : Variable
    Bit rate                    : 1 522 kb/s
    Maximum bit rate            : 3 369 kb/s
    Channel(s)                  : 6 channels
    Channel layout              : L R C LFE Ls Rs
    Sampling rate               : 48.0 kHz
    Frame rate                  : 1 200.000 FPS (40 SPF)
    Compression mode            : Lossless
    Stream size                 : 1.63 GiB (7%)
    Title                       : TrueHD
    Language                    : English
    Default                     : No
    Forced                      : No

    Audio #3
    ID                          : 4
    Format                      : AC-3
    Format/Info                 : Audio Coding 3
    Commercial name             : Dolby Digital
    Codec ID                    : A_AC3
    Duration                    : 2 h 33 min
    Bit rate mode               : Constant
    Bit rate                    : 640 kb/s
    Channel(s)                  : 6 channels
    Channel layout              : L R C LFE Ls Rs
    Sampling rate               : 48.0 kHz
    Frame rate                  : 31.250 FPS (1536 SPF)
    Bit depth                   : 16 bits
    Compression mode            : Lossy
    Stream size                 : 703 MiB (3%)
    Title                       : AC3
    Language                    : English
    Service kind                : Complete Main
    Default                     : No
    Forced                      : No

    Text #1
    ID                          : 5
    Format                      : UTF-8
    Codec ID                    : S_TEXT/UTF8
    Codec ID/Info               : UTF-8 Plain Text
    Duration                    : 2 h 26 min
    Bit rate                    : 44 b/s
    Count of elements           : 1449
    Stream size                 : 47.7 KiB (0%)
    Title                       : SRT-Completos
    Language                    : Spanish
    Default                     : No
    Forced                      : No

    Text #2
    ID                          : 6
    Format                      : PGS
    Muxing mode                 : zlib
    Codec ID                    : S_HDMV/PGS
    Codec ID/Info               : Picture based subtitle format used on BDs/HD-DVDs
    Duration                    : 2 h 33 min
    Bit rate                    : 22.6 kb/s
    Count of elements           : 2900
    Stream size                 : 24.8 MiB (0%)
    Title                       : PGS-Completos
    Language                    : Spanish
    Default                     : No
    Forced                      : No

    Menu
    00:00:00.000                : en:Who's Harry Potter?
    00:05:28.495                : en:Horace Slughorn
    00:12:13.942                : en:What Could Be Safer?
    00:14:57.146                : en:Snape's Visitors
    00:18:43.205                : en:Draco's Detour
    00:22:30.516                : en:That's For My Father
    00:27:36.029                : en:Dark Forces
    00:32:04.631                : en:The Half Blood Prince
    00:37:48.224                : en:The Secret Riddle
    00:44:48.352                : en:Hermione's Helping Hand
    00:49:31.760                : en:Cursed Necklace
    00:54:55.375                : en:Slug Club
    01:00:00.305                : en:Felix Felicis
    01:03:09.661                : en:How It Feels
    01:05:57.162                : en:Free Agents
    01:09:13.691                : en:The Unbreakable Vow
    01:14:00.102                : en:Death Eaters Attack
    01:21:09.782                : en:A Sluggish Memory
    01:26:31.478                : en:Perilous Potions
    01:33:37.403                : en:Sectumsempra
    01:39:57.325                : en:Hiding the Book
    01:43:16.273                : en:Liquid Luck
    01:48:24.748                : en:After Aragog's Burial
    01:52:30.118                : en:Horcruxes
    01:56:53.673                : en:The Cave
    02:02:11.741                : en:Inferi Attack
    02:08:33.539                : en:The Astronomy Tower
    02:15:00.301                : en:Flight of the Prince
    02:19:08.048                : en:R.a.B.
    02:23:54.125                : en:End Credits

  • Peso: 22.3 GiB

Sinopsis

En medio de los desastres que azotan a Inglaterra, Harry y sus compañeros vuelven a Hogwarts para cursar su sexto año de estudios; y aunque las medidas de seguridad han convertido al colegio en una fortaleza, algunos estudiantes son víctimas de ataques inexplicables. Harry sospecha que Draco Malfoy es el responsable de los mismos y decide averiguar la razón. Mientras tanto, Albus Dumbledore y el protagonista exploran el pasado de Lord Voldemort mediante recuerdos que el director ha recolectado. Con esto, Dumbledore planea preparar al muchacho para el día de la batalla final.

Ficha técnica

Video trailer de la película

Enlaces de descarga

Rip de Bluray

Descargar Harry Potter y el misterio del príncipe (2009) REMUX 1080p Latino




Aportes de DPeliculasHDmega la pass es:dpeliculashdmega.org Aportes de CinemaniaHD la pass es:cinemaniahdd.com
Guardado en : Aventura , Fantasía , Remux

Películas relacionadas

  • Mar de sangre (2022) WEB-DL 1080p Latino

    Mar de sangre (2022) WEB-DL 1080p Latino

    2022
    Mar de sangre (2022) WEB-DL 1080p Latino

    1h 27m 2022

    Descargar Mar de sangre (2022) WEB-DL 1080p Latino. Un grupo de amigos que disfrutan de un fin de semana...

    Director: James Nunn

    Género: Acción

    Actores: Thomas Michael Flynn

  • Noche sin paz (2022) REMUX 1080p Latino

    Noche sin paz (2022) REMUX 1080p Latino

    2022
    Noche sin paz (2022) REMUX 1080p Latino

    1h 41m 2022

    Descargar Noche sin paz (2022) REMUX 1080p Latino. Cuando un equipo de mercenarios irrumpe en Nochebuena...

    Director: Tyshana Hobson

    Género: Acción

    Actores: Yoon Cha-Lee

  • Groundhog Day (1993) REMUX 4K HDR Latino – CMHDD

    Groundhog Day (1993) REMUX 4K HDR Latino – CMHDD

    1993
    Groundhog Day (1993) REMUX 4K HDR Latino – CMHDD

    1h 41m 1993

    Phil, hombre del tiempo de una cadena de televisión, es enviado un año más a Punxstawnwey, a cubrir...

    Director: Sam Hoffman

    Género: Comedia

    Actores: Willie Garson

  • Si no despierto (2017) BD-USA REMUX 1080p Latino

    Si no despierto (2017) BD-USA REMUX 1080p Latino

    2017
    Si no despierto (2017) BD-USA REMUX 1080p Latino

    1h 39m 2017

    Descargar Si no despierto (2017) BD-USA REMUX 1080p Latino. En principio el 12 de febrero es sólo otro...

    Director: Ry Russo-Young

    Género: Drama

    Actores: Zoey Deutch

  • Si no despierto (2017) BD-EUR REMUX 1080p Latino

    Si no despierto (2017) BD-EUR REMUX 1080p Latino

    2017
    Si no despierto (2017) BD-EUR REMUX 1080p Latino

    1h 39m 2017

    Descargar Si no despierto (2017) BD-EUR REMUX 1080p Latino. En principio el 12 de febrero es sólo otro...

    Director: Ry Russo-Young

    Género: Drama

    Actores: Zoey Deutch

descargar Harry Potter y el misterio del príncipe (2009) REMUX 1080p Latino Full 1080p 1080p gratis, Harry Potter y el misterio del príncipe (2009) REMUX 1080p Latino Full 1080p mega 1 link, Harry Potter y el misterio del príncipe (2009) REMUX 1080p Latino Full 1080p pelicula completa, descargar Harry Potter y el misterio del príncipe (2009) REMUX 1080p Latino Full 1080p gratis en mega.

Harry Potter y el misterio del príncipe (2009) REMUX 1080p Latino pelicula full hd, Harry Potter y el misterio del príncipe (2009) REMUX 1080p Latino mega latino, Harry Potter y el misterio del príncipe (2009) REMUX 1080p Latino 4k latino, Harry Potter y el misterio del príncipe (2009) REMUX 1080p Latino pelicula completa, Harry Potter y el misterio del príncipe (2009) REMUX 1080p Latino descargar gratis, descargar Harry Potter y el misterio del príncipe (2009) REMUX 1080p Latino pelicula latino, Harry Potter y el misterio del príncipe (2009) REMUX 1080p Latino 1 link mega, Harry Potter y el misterio del príncipe (2009) REMUX 1080p Latino 1 link google drive, Harry Potter y el misterio del príncipe (2009) REMUX 1080p Latino hd 1080p latino.
Comentarios 0