×

¿Problemas para descargar con Mozilla, EDGE? Deshabilita la opción "Abrir vinculos en una pestaña nueva" tal como lo muestra ésta imagen.

Harry Potter y el misterio del príncipe (2009) REMUX 1080p Latino

967 vistas

Información de Harry Potter y el misterio del príncipe (2009) REMUX 1080p Latino

Datos de la película

  • Calidad: Full 1080p
  • Audio: Español Latino AC3 5.1 BLURAY - Ingles AC3 5.1 BLURAY
  • Subtitulos: Español Latino SRT- FORZADOS SRT
  • Resolución: 1920x1080p
  • Formato: MKV
  • Codec: H.264
  • Encoder: Dracarys
  • Mediainfo: Clic para Mostrar Datos Ver
  • Format                      : Matroska
    Format version              : Version 4
    File size                   : 21.4 GiB
    Duration                    : 2 h 33 min
    Overall bit rate mode       : Variable
    Overall bit rate            : 20.0 Mb/s
    Movie name                  : Harry Potter y el misterio del príncipe (2009) REMUX 1080p Latino
    Encoded date                : UTC 2023-09-14 21:44:13
    Writing application         : mkvmerge v47.0.0 ('Black Flag') 64-bit
    Writing library             : libebml v1.3.10 + libmatroska v1.5.2

    Video
    ID                          : 1
    Format                      : VC-1
    Format profile              : Advanced@L3
    Codec ID                    : V_MS/VFW/FOURCC / WVC1
    Codec ID/Hint               : Microsoft
    Duration                    : 2 h 33 min
    Bit rate                    : 17.9 Mb/s
    Width                       : 1 920 pixels
    Height                      : 1 080 pixels
    Display aspect ratio        : 16:9
    Frame rate mode             : Constant
    Frame rate                  : 23.976 (24000/1001) FPS
    Color space                 : YUV
    Chroma subsampling          : 4:2:0
    Bit depth                   : 8 bits
    Scan type                   : Progressive
    Compression mode            : Lossy
    Bits/(Pixel*Frame)          : 0.361
    Stream size                 : 19.2 GiB (90%)
    Default                     : Yes
    Forced                      : No

    Audio #1
    ID                          : 2
    Format                      : AC-3
    Format/Info                 : Audio Coding 3
    Commercial name             : Dolby Digital
    Codec ID                    : A_AC3
    Duration                    : 2 h 33 min
    Bit rate mode               : Constant
    Bit rate                    : 448 kb/s
    Channel(s)                  : 6 channels
    Channel layout              : L R C LFE Ls Rs
    Sampling rate               : 48.0 kHz
    Frame rate                  : 31.250 FPS (1536 SPF)
    Compression mode            : Lossy
    Stream size                 : 492 MiB (2%)
    Language                    : Spanish
    Service kind                : Complete Main
    Default                     : Yes
    Forced                      : No

    Audio #2
    ID                          : 3
    Format                      : MLP FBA
    Format/Info                 : Meridian Lossless Packing FBA
    Commercial name             : Dolby TrueHD
    Codec ID                    : A_TRUEHD
    Duration                    : 2 h 33 min
    Bit rate mode               : Variable
    Bit rate                    : 1 522 kb/s
    Maximum bit rate            : 3 369 kb/s
    Channel(s)                  : 6 channels
    Channel layout              : L R C LFE Ls Rs
    Sampling rate               : 48.0 kHz
    Frame rate                  : 1 200.000 FPS (40 SPF)
    Compression mode            : Lossless
    Stream size                 : 1.63 GiB (8%)
    Language                    : English
    Default                     : No
    Forced                      : No

    Text
    ID                          : 4
    Format                      : PGS
    Muxing mode                 : zlib
    Codec ID                    : S_HDMV/PGS
    Codec ID/Info               : Picture based subtitle format used on BDs/HD-DVDs
    Duration                    : 2 h 33 min
    Bit rate                    : 22.6 kb/s
    Frame rate                  : 0.316 FPS
    Count of elements           : 2900
    Stream size                 : 24.8 MiB (0%)
    Language                    : Spanish
    Default                     : No
    Forced                      : No

    Menu
    00:00:00.000                : en:Who's Harry Potter?
    00:05:28.494                : en:Horace Slughorn
    00:12:13.941                : en:What Could Be Safer?
    00:14:57.146                : en:Snape's Visitors
    00:18:43.205                : en:Draco's Detour
    00:22:30.515                : en:That's For My Father
    00:27:36.029                : en:Dark Forces
    00:32:04.631                : en:The Half Blood Prince
    00:37:48.224                : en:The Secret Riddle
    00:44:48.352                : en:Hermione's Helping Hand
    00:49:31.760                : en:Cursed Necklace
    00:54:55.375                : en:Slug Club
    01:00:00.305                : en:Felix Felicis
    01:03:09.660                : en:How It Feels
    01:05:57.161                : en:Free Agents
    01:09:13.691                : en:The Unbreakable Vow
    01:14:00.102                : en:Death Eaters Attack
    01:21:09.781                : en:A Sluggish Memory
    01:26:31.477                : en:Perilous Potions
    01:33:37.403                : en:Sectumsempra
    01:39:57.324                : en:Hiding the Book
    01:43:16.273                : en:Liquid Luck
    01:48:24.748                : en:After Aragog's Burial
    01:52:30.118                : en:Horcruxes
    01:56:53.673                : en:The Cave
    02:02:11.741                : en:Inferi Attack
    02:08:33.539                : en:The Astronomy Tower
    02:15:00.300                : en:Flight of the Prince
    02:19:08.048                : en:R.a.B.
    02:23:54.125                : en:End Credits

  • Peso: 21.4 GiB

Sinopsis

En medio de los desastres que azotan a Inglaterra, Harry y sus compañeros vuelven a Hogwarts para cursar su sexto año de estudios; y aunque las medidas de seguridad han convertido al colegio en una fortaleza, algunos estudiantes son víctimas de ataques inexplicables. Harry sospecha que Draco Malfoy es el responsable de los mismos y decide averiguar la razón. Mientras tanto, Albus Dumbledore y el protagonista exploran el pasado de Lord Voldemort mediante recuerdos que el director ha recolectado. Con esto, Dumbledore planea preparar al muchacho para el día de la batalla final.

 

latino: AC3 5.1  –  Ingles. TrueHD 5.1

Ficha técnica

Video trailer de la película

Enlaces de descarga

Rip de Bluray

Descargar Harry Potter y el misterio del príncipe (2009) REMUX 1080p Latino




Aportes de DPeliculasHDmega la pass es:dpeliculashdmega.org Aportes de CinemaniaHD la pass es:cinemaniahdd.com Aportes recientes:cinemaniahdd.net
Guardado en : Aventura , Fantasía , Remux

Películas relacionadas

  • Viviendo con mi ex (2006) REMUX 1080p Latino-CMHDD

    Viviendo con mi ex (2006) REMUX 1080p Latino-CMHDD

    2006
    Viviendo con mi ex (2006) REMUX 1080p Latino-CMHDD

    1h 46m 2006

    Descargar Viviendo con mi ex (2006) REMUX 1080p Latino-CMHDD. Relato sobre las consecuencias de una ruptura...

    Director: Todd Amateau

    Género: Comedia

    Actores: William Dick

  • The Lego Movie (2014) REMUX 4K HDR Latino – CMHDD

    The Lego Movie (2014) REMUX 4K HDR Latino – CMHDD

    2014
    The Lego Movie (2014) REMUX 4K HDR Latino – CMHDD

    1h 40m 2014

    Película basada en los clásicos juguetes LEGO. Emmet, el protagonista de la película, trabaja como...

    Director: Vernessa Cook

    Género: Animación

    Actores: Will Forte

  • The Lego Movie (2014) REMUX 1080p Latino – CMHDD

    The Lego Movie (2014) REMUX 1080p Latino – CMHDD

    2014
    The Lego Movie (2014) REMUX 1080p Latino – CMHDD

    1h 40m 2014

    Película basada en los clásicos juguetes LEGO. Emmet, el protagonista de la película, trabaja como...

    Director: Vernessa Cook

    Género: Animación

    Actores: Will Forte

  • La Otra Cara de Dorian (2023) WEB-DL 1080p Latino

    La Otra Cara de Dorian (2023) WEB-DL 1080p Latino

    2023
    La Otra Cara de Dorian (2023) WEB-DL 1080p Latino

    1h 40m 2023

    Descargar La Otra Cara de Dorian (2023) WEB-DL 1080p Latino. Una versión moderna del cuento de Oscar...

    Director: Richard John Taylor

    Género: Drama

    Actores: Triana Terry

  • Arthur: Una Amistad sin Limites (2024) HD 1080p Latino

    Arthur: Una Amistad sin Limites (2024) HD 1080p Latino

    2024
    Arthur: Una Amistad sin Limites (2024) HD 1080p Latino

    1h 47m 2024

    Descargar Arthur: Una Amistad sin Limites (2024) HD 1080p Latino. Mikael Lindnord, el capitán del equipo...

    Director: Simon Cellan Jones

    Género: Aventura

    Actores: Zamantha Díaz

descargar Harry Potter y el misterio del príncipe (2009) REMUX 1080p Latino Full 1080p 1080p gratis, Harry Potter y el misterio del príncipe (2009) REMUX 1080p Latino Full 1080p mega 1 link, Harry Potter y el misterio del príncipe (2009) REMUX 1080p Latino Full 1080p pelicula completa, descargar Harry Potter y el misterio del príncipe (2009) REMUX 1080p Latino Full 1080p gratis en mega.

Harry Potter y el misterio del príncipe (2009) REMUX 1080p Latino pelicula full hd, Harry Potter y el misterio del príncipe (2009) REMUX 1080p Latino mega latino, Harry Potter y el misterio del príncipe (2009) REMUX 1080p Latino 4k latino, Harry Potter y el misterio del príncipe (2009) REMUX 1080p Latino pelicula completa, Harry Potter y el misterio del príncipe (2009) REMUX 1080p Latino descargar gratis, descargar Harry Potter y el misterio del príncipe (2009) REMUX 1080p Latino pelicula latino, Harry Potter y el misterio del príncipe (2009) REMUX 1080p Latino 1 link mega, Harry Potter y el misterio del príncipe (2009) REMUX 1080p Latino 1 link google drive, Harry Potter y el misterio del príncipe (2009) REMUX 1080p Latino hd 1080p latino.
Comentarios 0