Harry, el sucio (1971) Full 1080p Latino

684 vistas
1 estrella2 estrellas3 estrellas4 estrellas5 estrellas (1 votos, promedio: 5,00 de 5)
Cargando…

Información de Harry, el sucio (1971) Full 1080p Latino

Datos de la película

  • Calidad: Full 1080p
  • Audio: Español Latino AC3 1.0 BLURAY - Ingles AC3 5.1 BLURAY
  • Subtitulos: Español Latino PGS - Ingles PGS
  • Resolución: 1920x1080p
  • Formato: MKV
  • Codec: H.264
  • Encoder: Dracarys
  • Mediainfo: Clic para Mostrar Datos Ver
  • Format                                   : Matroska
    Format version                           : Version 4 / Version 2
    File size                                : 7.00 GiB
    Duration                                 : 1 h 42 min
    Overall bit rate                         : 9 777 kb/s
    Movie name                               : CinemaniaHDD.net
    Encoded date                             : UTC 2018-11-27 18:06:22 / UTC 2018-11-23T03:35:04Z
    Writing application                      : mkvmerge v15.0.0 ('Duel with the Devil') 64-bit
    Writing library                          : libebml v1.3.5 + libmatroska v1.4.5 / Lavf57.7.2

    Video
    ID                                       : 1
    Format                                   : AVC
    Format/Info                              : Advanced Video Codec
    Format profile                           : High@L4.1
    Format settings                          : CABAC / 4 Ref Frames
    Format settings, CABAC                   : Yes
    Format settings, RefFrames               : 4 frames
    Codec ID                                 : V_MPEG4/ISO/AVC
    Duration                                 : 1 h 42 min
    Bit rate                                 : 8 750 kb/s
    Width                                    : 1 920 pixels
    Height                                   : 1 080 pixels
    Display aspect ratio                     : 16:9
    Frame rate mode                          : Constant
    Frame rate                               : 23.976 (24000/1001) FPS
    Color space                              : YUV
    Chroma subsampling                       : 4:2:0
    Bit depth                                : 8 bits
    Scan type                                : Progressive
    Bits/(Pixel*Frame)                       : 0.176
    Stream size                              : 6.26 GiB (90%)
    Writing library                          : x264 core 148 r2708 86b7198
    Encoding settings                        : cabac=1 / ref=4 / deblock=1:0:0 / analyse=0x3:0x133 / me=esa / subme=10 / psy=1 / psy_rd=1.00:0.00 / mixed_ref=1 / me_range=24 / chroma_me=1 / trellis=2 / 8x8dct=1 / cqm=0 / deadzone=21,11 / fast_pskip=1 / chroma_qp_offset=-2 / threads=34 / lookahead_threads=5 / sliced_threads=0 / nr=0 / decimate=1 / interlaced=0 / bluray_compat=0 / constrained_intra=0 / bframes=8 / b_pyramid=2 / b_adapt=2 / b_bias=0 / direct=3 / weightb=1 / open_gop=0 / weightp=2 / keyint=240 / keyint_min=24 / scenecut=40 / intra_refresh=0 / rc_lookahead=60 / rc=crf / mbtree=1 / crf=20.0 / qcomp=0.60 / qpmin=0 / qpmax=69 / qpstep=4 / vbv_maxrate=62500 / vbv_bufsize=78125 / crf_max=0.0 / nal_hrd=none / filler=0 / ip_ratio=1.40 / aq=1:1.00
    Language                                 : English
    Default                                  : Yes
    Forced                                   : No
    Color range                              : Limited
    Color primaries                          : BT.709
    Transfer characteristics                 : BT.709
    Matrix coefficients                      : BT.709
    Statistics Tags Issue                    : mkvmerge v15.0.0 ('Duel with the Devil') 64-bit 2018-11-27 18:06:22 / mkvmerge v15.0.0 ('Duel with the Devil') 64-bit 2018-11-27 18:06:22 / UTC 2018-11-23T03:35:04Z
    FromStats_BitRate                        : 8921857
    FromStats_Duration                       : 01:42:29.435000000
    FromStats_FrameCount                     : 147439
    FromStats_StreamSize                     : 6858047869

    Audio #1
    ID                                       : 2
    Format                                   : AC-3
    Format/Info                              : Audio Coding 3
    Format settings, Endianness              : Big
    Codec ID                                 : A_AC3
    Duration                                 : 1 h 42 min
    Bit rate mode                            : Constant
    Bit rate                                 : 192 kb/s
    Channel(s)                               : 1 channel
    Channel positions                        : Front: C
    Sampling rate                            : 48.0 kHz
    Frame rate                               : 31.250 FPS (1536 SPF)
    Bit depth                                : 16 bits
    Compression mode                         : Lossy
    Stream size                              : 141 MiB (2%)
    Language                                 : Spanish
    Service kind                             : Complete Main
    Default                                  : Yes
    Forced                                   : No
    Statistics Tags Issue                    : mkvmerge v15.0.0 ('Duel with the Devil') 64-bit 2018-11-27 18:06:22 / mkvmerge v15.0.0 ('Duel with the Devil') 64-bit 2018-11-27 18:06:22 / UTC 2018-11-23T03:35:04Z
    FromStats_BitRate                        : 192000
    FromStats_Duration                       : 01:42:29.440000000
    FromStats_FrameCount                     : 192170
    FromStats_StreamSize                     : 147586560

    Audio #2
    ID                                       : 3
    Format                                   : AC-3
    Format/Info                              : Audio Coding 3
    Format settings, Endianness              : Big
    Codec ID                                 : A_AC3
    Duration                                 : 1 h 42 min
    Bit rate mode                            : Constant
    Bit rate                                 : 640 kb/s
    Channel(s)                               : 6 channels
    Channel positions                        : Front: L C R, Side: L R, LFE
    Sampling rate                            : 48.0 kHz
    Frame rate                               : 31.250 FPS (1536 SPF)
    Bit depth                                : 16 bits
    Compression mode                         : Lossy
    Stream size                              : 469 MiB (7%)
    Language                                 : English
    Service kind                             : Complete Main
    Default                                  : No
    Forced                                   : No
    Statistics Tags Issue                    : mkvmerge v15.0.0 ('Duel with the Devil') 64-bit 2018-11-27 18:06:22 / mkvmerge v15.0.0 ('Duel with the Devil') 64-bit 2018-11-27 18:06:22 / UTC 2018-11-23T03:35:04Z
    FromStats_BitRate                        : 640000
    FromStats_Duration                       : 01:42:29.440000000
    FromStats_FrameCount                     : 192170
    FromStats_StreamSize                     : 491955200

    Text #1
    ID                                       : 4
    Format                                   : PGS
    Muxing mode                              : zlib
    Codec ID                                 : S_HDMV/PGS
    Codec ID/Info                            : Picture based subtitle format used on BDs/HD-DVDs
    Language                                 : English
    Default                                  : No
    Forced                                   : No
    Statistics Tags Issue                    : mkvmerge v15.0.0 ('Duel with the Devil') 64-bit 2018-11-27 18:06:22 / mkvmerge v15.0.0 ('Duel with the Devil') 64-bit 2018-11-27 18:06:22 / UTC 2018-11-23T03:35:04Z
    FromStats_BitRate                        : 26086
    FromStats_Duration                       : 01:36:45.258000000
    FromStats_FrameCount                     : 1627
    FromStats_StreamSize                     : 18929758

    Text #2
    ID                                       : 5
    Format                                   : PGS
    Muxing mode                              : zlib
    Codec ID                                 : S_HDMV/PGS
    Codec ID/Info                            : Picture based subtitle format used on BDs/HD-DVDs
    Language                                 : Spanish
    Default                                  : No
    Forced                                   : No
    Statistics Tags Issue                    : mkvmerge v15.0.0 ('Duel with the Devil') 64-bit 2018-11-27 18:06:22 / mkvmerge v15.0.0 ('Duel with the Devil') 64-bit 2018-11-27 18:06:22 / UTC 2018-11-23T03:35:04Z
    FromStats_BitRate                        : 22780
    FromStats_Duration                       : 01:42:12.042000000
    FromStats_FrameCount                     : 1666
    FromStats_StreamSize                     : 17461586

    Menu
    00:00:00.000                             : :Chapter 1
    00:01:51.445                             : :Chapter 2
    00:05:43.510                             : :Chapter 3
    00:09:41.915                             : :Chapter 4
    00:14:49.097                             : :Chapter 5
    00:16:55.598                             : :Chapter 6
    00:19:57.029                             : :Chapter 7
    00:23:38.250                             : :Chapter 8
    00:28:37.883                             : :Chapter 9
    00:33:06.818                             : :Chapter 10
    00:36:41.032                             : :Chapter 11
    00:39:40.795                             : :Chapter 12
    00:42:21.164                             : :Chapter 13
    00:47:11.329                             : :Chapter 14
    00:52:52.002                             : :Chapter 15
    00:54:55.125                             : :Chapter 16
    00:56:40.230                             : :Chapter 17
    01:01:36.860                             : :Chapter 18
    01:04:47.717                             : :Chapter 19
    01:07:32.882                             : :Chapter 20
    01:10:26.055                             : :Chapter 21
    01:15:46.375                             : :Chapter 22
    01:17:38.487                             : :Chapter 23
    01:22:13.846                             : :Chapter 24
    01:24:45.914                             : :Chapter 25
    01:26:15.003                             : :Chapter 26
    01:32:07.355                             : :Chapter 27
    01:36:19.607                             : :Chapter 28
    01:39:23.791                             : :Chapter 29
    01:40:53.381                             : :Chapter 30
    01:41:40.928                             : :Chapter 31

     

  • Peso: 7.00 GiB

Sinopsis

Harry Callahan es un duro policía que se ha criado en la calle. Sus compañeros le llaman Harry el Sucio por sus particulares métodos de lucha contra el crimen y porque siempre se encarga de los trabajos más desagradables. En San Francisco, un francotirador ha matado ya a dos personas. Harry será el encargado de resolver el caso.

Ficha técnica

Video trailer de la película

Enlaces de descarga

Rip de Bluray

Descargar Harry, el sucio (1971) Full 1080p Latino




Aportes de DPeliculasHDmega la pass es:dpeliculashdmega.org Aportes de CinemaniaHD la pass es:cinemaniahdd.com

Películas relacionadas

  • La casa con un reloj en sus paredes (2018) 1080p Latino

    2018
    La casa con un reloj en sus paredes (2018) 1080p Latino

    5.0 1h 45m 2018

    Descargar La casa con un reloj en sus paredes (2018) 1080p Latino, Mega, Google Drive, Torrent. La historia...

    Director: Eli Roth

    Género: Familia

    Actores: Vanessa Anne Williams

  • Godzilla (2014) 1080p Latino

    2014
    Godzilla (2014) 1080p Latino

    0.0 2h 3m 2014

    Descargar Godzilla (2014) 1080p Latino, Mega, Google Drive, Torrent. Gareth Edwards dirige este "reboot",...

    Director: Jessica Clothier

    Género: Acción

    Actores: Yuki Morita

  • Godzilla (2014) Full 1080p Latino

    2014
    Godzilla (2014) Full 1080p Latino

    4.2 2h 3m 2014

    Descargar Godzilla (2014) Full 1080p Latino, Mega, Google Drive, Torrent. Gareth Edwards dirige este...

    Director: Jessica Clothier

    Género: Acción

    Actores: Yuki Morita

Comentarios 0