×

¿Problemas para descargar con Mozilla, EDGE? Deshabilita la opción "Abrir vinculos en una pestaña nueva" tal como lo muestra ésta imagen.

Harlan Coben’s Shelter (2023) Primera Temporada AMZN WEB-DL 1080p Latino

202 vistas

Información de Harlan Coben’s Shelter (2023) Primera Temporada AMZN WEB-DL 1080p Latino

Datos de la película

  • Calidad: 1080p
  • Audio: Español Latino AC3 5.1 WEB-DL - Ingles AC3 5.1 WEB-DL
  • Subtitulos: Español Latino SRT- FORZADOS SRT
  • Resolución: 1920x1080
  • Formato: MKV
  • Codec: H.264
  • Encoder: cinemaniahdd
  • Mediainfo: Clic para Mostrar Datos Ver
  • Harlan Cobens Shelter T01E01 AMZN WEB-DL 1080p Latino [CNMNHDD].mkv
    Format                      : Matroska
    Format version              : Version 4
    File size                   : 4.08 GiB
    Duration                    : 56 min 43 s
    Overall bit rate            : 10.3 Mb/s
    Movie name                  : Harlan Cobens Shelter S01E01 - Pilot [1080p] - CinemaniaHDD.Net
    Encoded date                : UTC 2023-08-18 00:34:01
    Writing application         : mkvmerge v56.1.0 ('My Friend') 64-bit
    Writing library             : libebml v1.4.2 + libmatroska v1.6.4

    Video
    ID                          : 1
    Format                      : AVC
    Format/Info                 : Advanced Video Codec
    Format profile              : High@L4
    Format settings             : CABAC / 4 Ref Frames
    Format settings, CABAC      : Yes
    Format settings, Reference  : 4 frames
    Codec ID                    : V_MPEG4/ISO/AVC
    Duration                    : 56 min 43 s
    Bit rate mode               : Constant
    Bit rate                    : 8 369 kb/s
    Nominal bit rate            : 10 000 kb/s
    Width                       : 1 920 pixels
    Height                      : 960 pixels
    Display aspect ratio        : 2.000
    Frame rate mode             : Constant
    Frame rate                  : 23.976 (24000/1001) FPS
    Color space                 : YUV
    Chroma subsampling          : 4:2:0
    Bit depth                   : 8 bits
    Scan type                   : Progressive
    Bits/(Pixel*Frame)          : 0.189
    Stream size                 : 3.32 GiB (81%)
    Title                       : CinemaniaHDD
    Default                     : Yes
    Forced                      : No
    Color range                 : Limited
    Color primaries             : BT.709
    Transfer characteristics    : BT.709
    Matrix coefficients         : BT.709

    Audio #1
    ID                          : 2
    Format                      : AC-3
    Format/Info                 : Audio Coding 3
    Commercial name             : Dolby Digital
    Codec ID                    : A_AC3
    Duration                    : 56 min 43 s
    Bit rate mode               : Constant
    Bit rate                    : 640 kb/s
    Channel(s)                  : 6 channels
    Channel layout              : L R C LFE Ls Rs
    Sampling rate               : 48.0 kHz
    Frame rate                  : 31.250 FPS (1536 SPF)
    Compression mode            : Lossy
    Stream size                 : 260 MiB (6%)
    Title                       : Español Latino [CinemaniaHDD]
    Language                    : Spanish
    Service kind                : Complete Main
    Default                     : Yes
    Forced                      : No

    Audio #2
    ID                          : 3
    Format                      : E-AC-3
    Format/Info                 : Enhanced AC-3
    Commercial name             : Dolby Digital Plus
    Codec ID                    : A_EAC3
    Duration                    : 56 min 43 s
    Bit rate mode               : Constant
    Bit rate                    : 640 kb/s
    Channel(s)                  : 6 channels
    Channel layout              : L R C LFE Ls Rs
    Sampling rate               : 48.0 kHz
    Frame rate                  : 31.250 FPS (1536 SPF)
    Compression mode            : Lossy
    Stream size                 : 260 MiB (6%)
    Title                       : Español latino / E-AC3 [CinemaniaHDD]
    Language                    : Spanish
    Service kind                : Complete Main
    Default                     : No
    Forced                      : No

    Audio #3
    ID                          : 4
    Format                      : E-AC-3
    Format/Info                 : Enhanced AC-3
    Commercial name             : Dolby Digital Plus
    Codec ID                    : A_EAC3
    Duration                    : 56 min 43 s
    Bit rate mode               : Constant
    Bit rate                    : 640 kb/s
    Channel(s)                  : 6 channels
    Channel layout              : L R C LFE Ls Rs
    Sampling rate               : 48.0 kHz
    Frame rate                  : 31.250 FPS (1536 SPF)
    Compression mode            : Lossy
    Stream size                 : 260 MiB (6%)
    Title                       : Inglés [CinemaniaHDD]
    Language                    : English
    Service kind                : Complete Main
    Default                     : No
    Forced                      : No

    Text #1
    ID                          : 5
    Format                      : UTF-8
    Codec ID                    : S_TEXT/UTF8
    Codec ID/Info               : UTF-8 Plain Text
    Duration                    : 53 min 21 s
    Bit rate                    : 3 b/s
    Count of elements           : 43
    Stream size                 : 1.46 KiB (0%)
    Title                       : Forzados [CinemaniaHDD]
    Language                    : Spanish
    Default                     : Yes
    Forced                      : Yes

    Text #2
    ID                          : 6
    Format                      : UTF-8
    Codec ID                    : S_TEXT/UTF8
    Codec ID/Info               : UTF-8 Plain Text
    Duration                    : 55 min 22 s
    Bit rate                    : 53 b/s
    Count of elements           : 676
    Stream size                 : 21.7 KiB (0%)
    Title                       : Español Latino [CinemaniaHDD]
    Language                    : Spanish
    Default                     : No
    Forced                      : No

    Text #3
    ID                          : 7
    Format                      : UTF-8
    Codec ID                    : S_TEXT/UTF8
    Codec ID/Info               : UTF-8 Plain Text
    Duration                    : 53 min 39 s
    Bit rate                    : 81 b/s
    Count of elements           : 1144
    Stream size                 : 31.9 KiB (0%)
    Title                       : Inglés [CinemaniaHDD]
    Language                    : English
    Default                     : No
    Forced                      : No

    Menu
    00:00:00.000                : 1. Prime Video
    00:00:06.000                : Scene 2
    00:01:07.000                : Scene 3
    00:05:23.000                : 4. Title Sequence
    00:05:31.000                : Scene 5
    00:09:57.000                : Scene 6
    00:12:22.000                : Scene 7
    00:14:17.000                : Scene 8
    00:16:03.000                : Scene 9
    00:19:07.000                : Scene 10
    00:23:53.000                : Scene 11
    00:26:53.000                : Scene 12
    00:28:07.000                : Scene 13
    00:30:50.000                : Scene 14
    00:33:55.000                : Scene 15
    00:37:35.000                : Scene 16
    00:41:40.000                : Scene 17
    00:46:48.000                : Scene 18
    00:50:08.000                : Scene 19
    00:51:56.000                : 20. End Credits
    00:52:05.000                : 21. Next On
    00:53:46.000                : 22. Prime Video
    00:53:49.000                : 23. End Credits

     

  • Peso: 4.08 GiB Aprox ---- 27 GiB in 8 Chapters.

Sinopsis

Basado en los libros de Harlan Coben, Shelter narra la historia de Mickey Bolitar a quien la muerte de su padre lo lleva a comenzar una nueva vida en un suburbio de Nueva Jersey. Cuando otro estudiante desaparece, Mickey se involucra en una red de secretos. Con la ayuda de sus dos nuevos amigos, Spoon y Ema, descubren un obscuro secreto que puede contener la respuesta a décadas de desapariciones.

Ficha técnica

Video trailer de la película

Enlaces de descarga

Rip de Bluray

Descargar Harlan Coben’s Shelter (2023) Primera Temporada AMZN WEB-DL 1080p Latino




Aportes de DPeliculasHDmega la pass es:dpeliculashdmega.org Aportes de CinemaniaHD la pass es:cinemaniahdd.com Aportes recientes:cinemaniahdd.net
Guardado en : Crimen , Drama , Misterio , Series

Películas relacionadas

descargar Harlan Coben’s Shelter (2023) Primera Temporada AMZN WEB-DL 1080p Latino 1080p 1080p gratis, Harlan Coben’s Shelter (2023) Primera Temporada AMZN WEB-DL 1080p Latino 1080p mega 1 link, Harlan Coben’s Shelter (2023) Primera Temporada AMZN WEB-DL 1080p Latino 1080p serie completa, descargar Harlan Coben’s Shelter (2023) Primera Temporada AMZN WEB-DL 1080p Latino 1080p gratis en mega.

Harlan Coben’s Shelter (2023) Primera Temporada AMZN WEB-DL 1080p Latino pelicula full hd, Harlan Coben’s Shelter (2023) Primera Temporada AMZN WEB-DL 1080p Latino mega latino, Harlan Coben’s Shelter (2023) Primera Temporada AMZN WEB-DL 1080p Latino 4k latino, Harlan Coben’s Shelter (2023) Primera Temporada AMZN WEB-DL 1080p Latino pelicula completa, Harlan Coben’s Shelter (2023) Primera Temporada AMZN WEB-DL 1080p Latino descargar gratis, descargar Harlan Coben’s Shelter (2023) Primera Temporada AMZN WEB-DL 1080p Latino pelicula latino, Harlan Coben’s Shelter (2023) Primera Temporada AMZN WEB-DL 1080p Latino 1 link mega, Harlan Coben’s Shelter (2023) Primera Temporada AMZN WEB-DL 1080p Latino 1 link google drive, Harlan Coben’s Shelter (2023) Primera Temporada AMZN WEB-DL 1080p Latino hd 1080p latino.
Comentarios 0