×

¿Problemas para descargar con Mozilla, EDGE? Deshabilita la opción "Abrir vinculos en una pestaña nueva" tal como lo muestra ésta imagen.

Hansel & Gretel: Cazadores De Brujas (2013) UNRATED 1080p Latino

277 vistas

Información de Hansel & Gretel: Cazadores De Brujas (2013) UNRATED 1080p Latino

Datos de la película

  • Calidad: 1080p
  • Audio: Español Latino AC3 5.1 BLURAY - Ingles AC3 5.1 BLURAY
  • Subtitulos: Español Latino SRT - Ingles SRT
  • Resolución: 1920x800p
  • Formato: MKV
  • Codec: H.264
  • Encoder: CinefiloCool
  • Mediainfo: Clic para Mostrar Datos Ver
  • Hansel y Gretel Cazadores De Brujas (2013) UNRATED 1080p Latino-CMHDD.mkv
    Format                      : Matroska
    Format version              : Version 4
    File size                   : 3.14 GiB
    Duration                    : 1 h 37 min
    Overall bit rate            : 4 590 kb/s
    Movie name                  : Hansel & Gretel Witch Hunters (2013) CinemaniaHDD.Net
    Encoded date                : UTC 2020-12-09 03:06:44
    Writing application         : mkvmerge v51.0.0 ('I Wish') 64-bit
    Writing library             : libebml v1.4.0 + libmatroska v1.6.2
    Attachments                 : CINEMANIAHD.png

    Video
    ID                          : 1
    Format                      : AVC
    Format/Info                 : Advanced Video Codec
    Format profile              : High@L4.1
    Format settings             : CABAC / 5 Ref Frames
    Format settings, CABAC      : Yes
    Format settings, Reference  : 5 frames
    Codec ID                    : V_MPEG4/ISO/AVC
    Duration                    : 1 h 37 min
    Bit rate                    : 3 500 kb/s
    Width                       : 1 920 pixels
    Height                      : 800 pixels
    Display aspect ratio        : 2.40:1
    Frame rate mode             : Constant
    Frame rate                  : 23.976 (24000/1001) FPS
    Color space                 : YUV
    Chroma subsampling          : 4:2:0
    Bit depth                   : 8 bits
    Scan type                   : Progressive
    Bits/(Pixel*Frame)          : 0.095
    Stream size                 : 2.39 GiB (76%)
    Title                       : HD1080p [CinemaniaHDD]
    Writing library             : x264 core 157 r2935 545de2f
    Encoding settings           : cabac=1 / ref=5 / deblock=1:-1:-1 / analyse=0x3:0x133 / me=umh / subme=9 / psy=1 / psy_rd=1.00:0.15 / mixed_ref=1 / me_range=16 / chroma_me=1 / trellis=2 / 8x8dct=1 / cqm=0 / deadzone=21,11 / fast_pskip=1 / chroma_qp_offset=-3 / threads=24 / lookahead_threads=2 / sliced_threads=0 / nr=0 / decimate=1 / interlaced=0 / bluray_compat=0 / constrained_intra=0 / bframes=3 / b_pyramid=2 / b_adapt=2 / b_bias=0 / direct=3 / weightb=1 / open_gop=0 / weightp=2 / keyint=240 / keyint_min=24 / scenecut=40 / intra_refresh=0 / rc_lookahead=60 / rc=2pass / mbtree=1 / bitrate=3500 / ratetol=1.0 / qcomp=0.60 / qpmin=0 / qpmax=69 / qpstep=4 / cplxblur=20.0 / qblur=0.5 / vbv_maxrate=62500 / vbv_bufsize=78125 / nal_hrd=none / filler=0 / ip_ratio=1.40 / aq=1:1.00
    Default                     : Yes
    Forced                      : No
    Color range                 : Limited
    Color primaries             : BT.709
    Transfer characteristics    : BT.709
    Matrix coefficients         : BT.709

    Audio #1
    ID                          : 2
    ID in the original source m : 4354 (0x1102)
    Format                      : AC-3
    Format/Info                 : Audio Coding 3
    Commercial name             : Dolby Digital
    Codec ID                    : A_AC3
    Duration                    : 1 h 37 min
    Bit rate mode               : Constant
    Bit rate                    : 640 kb/s
    Channel(s)                  : 6 channels
    Channel layout              : L R C LFE Ls Rs
    Sampling rate               : 48.0 kHz
    Frame rate                  : 31.250 FPS (1536 SPF)
    Compression mode            : Lossy
    Delay relative to video     : -5 ms
    Stream size                 : 448 MiB (14%)
    Title                       : Español Latino [CinemaniaHDD]
    Language                    : Spanish
    Service kind                : Complete Main
    Default                     : Yes
    Forced                      : No
    Original source medium      : Blu-ray

    Audio #2
    ID                          : 3
    Format                      : AC-3
    Format/Info                 : Audio Coding 3
    Commercial name             : Dolby Digital
    Codec ID                    : A_AC3
    Duration                    : 1 h 37 min
    Bit rate mode               : Constant
    Bit rate                    : 448 kb/s
    Channel(s)                  : 6 channels
    Channel layout              : L R C LFE Ls Rs
    Sampling rate               : 48.0 kHz
    Frame rate                  : 31.250 FPS (1536 SPF)
    Compression mode            : Lossy
    Delay relative to video     : -5 ms
    Stream size                 : 314 MiB (10%)
    Title                       : Ingles [CinemaniaHDD]
    Language                    : English
    Service kind                : Complete Main
    Default                     : No
    Forced                      : No

    Text #1
    ID                          : 4
    Format                      : UTF-8
    Codec ID                    : S_TEXT/UTF8
    Codec ID/Info               : UTF-8 Plain Text
    Duration                    : 42 min 10 s
    Bit rate                    : 1 b/s
    Count of elements           : 14
    Stream size                 : 406 Bytes (0%)
    Title                       : Forzados-SRT [CinemaniaHDD]
    Language                    : Spanish
    Default                     : Yes
    Forced                      : No

    Text #2
    ID                          : 5
    Format                      : UTF-8
    Codec ID                    : S_TEXT/UTF8
    Codec ID/Info               : UTF-8 Plain Text
    Duration                    : 1 h 29 min
    Bit rate                    : 34 b/s
    Count of elements           : 872
    Stream size                 : 22.6 KiB (0%)
    Title                       : Español-SRT [CinemaniaHDD]
    Language                    : Spanish
    Default                     : No
    Forced                      : No

    Text #3
    ID                          : 6
    Format                      : UTF-8
    Codec ID                    : S_TEXT/UTF8
    Codec ID/Info               : UTF-8 Plain Text
    Duration                    : 1 h 29 min
    Bit rate                    : 35 b/s
    Count of elements           : 905
    Stream size                 : 23.5 KiB (0%)
    Title                       : Ingles-SRT [CinemaniaHDD]
    Language                    : English
    Default                     : No
    Forced                      : No

    Menu
    00:00:00.000                : en:Chapter 01
    00:09:02.333                : en:Chapter 02
    00:16:12.805                : en:Chapter 03
    00:26:24.958                : en:Chapter 04
    00:35:18.032                : en:Chapter 05
    00:46:34.750                : en:Chapter 06
    00:57:17.725                : en:Chapter 07
    01:04:26.279                : en:Chapter 08
    01:09:44.388                : en:Chapter 09
    01:14:10.571                : en:Chapter 10
    01:22:05.003                : en:Chapter 11
    01:29:02.253                : en:Chapter 12

  • Peso: 3.14 GiB

Sinopsis

Descargar Hansel & Gretel: Cazadores De Brujas (2013) UNRATED 1080p Latino. Han pasado quince años desde que Hansel (Jeremy Renner) y Gretel (Gemma Arterton) vivieron la aventura que los hizo famosos. Tras probar el sabor de la sangre siendo unos niños, ambos se han convertido en unos auténticos justicieros, dispuestos a todo para vengarse. Pero ahora, sin que ellos lo sepan, también se han convertido en la presa, y tienen que enfrentarse a algo mucho más siniestro que las brujas: su pasado.

Ficha técnica

Video trailer de la película

Enlaces de descarga

Rip de Bluray

Descargar Hansel & Gretel: Cazadores De Brujas (2013) UNRATED 1080p Latino




Aportes de DPeliculasHDmega la pass es:dpeliculashdmega.org Aportes de CinemaniaHD la pass es:cinemaniahdd.com
Guardado en : Acción , Fantasía , HD 1080p , Terror

Películas relacionadas

descargar Hansel & Gretel: Cazadores De Brujas (2013) UNRATED 1080p Latino 1080p 1080p gratis, Hansel & Gretel: Cazadores De Brujas (2013) UNRATED 1080p Latino 1080p mega 1 link, Hansel & Gretel: Cazadores De Brujas (2013) UNRATED 1080p Latino 1080p pelicula completa, descargar Hansel & Gretel: Cazadores De Brujas (2013) UNRATED 1080p Latino 1080p gratis en mega.

Hansel & Gretel: Cazadores De Brujas (2013) UNRATED 1080p Latino pelicula full hd, Hansel & Gretel: Cazadores De Brujas (2013) UNRATED 1080p Latino mega latino, Hansel & Gretel: Cazadores De Brujas (2013) UNRATED 1080p Latino 4k latino, Hansel & Gretel: Cazadores De Brujas (2013) UNRATED 1080p Latino pelicula completa, Hansel & Gretel: Cazadores De Brujas (2013) UNRATED 1080p Latino descargar gratis, descargar Hansel & Gretel: Cazadores De Brujas (2013) UNRATED 1080p Latino pelicula latino, Hansel & Gretel: Cazadores De Brujas (2013) UNRATED 1080p Latino 1 link mega, Hansel & Gretel: Cazadores De Brujas (2013) UNRATED 1080p Latino 1 link google drive, Hansel & Gretel: Cazadores De Brujas (2013) UNRATED 1080p Latino hd 1080p latino.
Comentarios 0