×

¿Problemas para descargar con Mozilla, EDGE? Deshabilita la opción "Abrir vinculos en una pestaña nueva" tal como lo muestra ésta imagen.

Hansel and Gretel Witch Hunters (2013) 3D Full HD 1080p Latino – CMHDD

375 vistas

Información de Hansel and Gretel Witch Hunters (2013) 3D Full HD 1080p Latino – CMHDD

Datos de la película

  • Calidad: Full 1080p
  • Audio: Español Latino AC3 5.1 BLURAY - Ingles AC3 5.1 BLURAY
  • Subtitulos: Español Latino SRT- FORZADOS SRT
  • Resolución: 1920x1080p
  • Formato: MKV
  • Codec: H.264
  • Encoder: Dracarys
  • Mediainfo: Clic para Mostrar Datos Ver
  • Format                      : Matroska
    Format version              : Version 4
    File size                   : 12.7 GiB
    Duration                    : 1 h 27 min
    Overall bit rate            : 20.6 Mb/s
    Movie name                  : Hansel and Gretel Witch Hunters (2013) 3D Full HD 1080p Latino - CMHDD
    Encoded date                : UTC 2020-12-03 00:10:37
    Writing application         : mkvmerge v51.0.0 ('I Wish') 64-bit
    Writing library             : libebml v1.4.0 + libmatroska v1.6.2

    Video
    ID                          : 1
    Format                      : AVC
    Format/Info                 : Advanced Video Codec
    Format profile              : High@L5
    Format settings             : CABAC / 4 Ref Frames
    Format settings, CABAC      : Yes
    Format settings, Reference  : 4 frames
    Codec ID                    : V_MPEG4/ISO/AVC
    Duration                    : 1 h 27 min
    Bit rate                    : 19.3 Mb/s
    Width                       : 1 920 pixels
    Height                      : 1 592 pixels
    Display aspect ratio        : 1.206
    Frame rate mode             : Constant
    Frame rate                  : 23.976 (24000/1001) FPS
    Color space                 : YUV
    Chroma subsampling          : 4:2:0
    Bit depth                   : 8 bits
    Scan type                   : Progressive
    Bits/(Pixel*Frame)          : 0.264
    Stream size                 : 11.9 GiB (94%)
    Writing library             : x264 core 128 r2216kMod 198a7ea
    Encoding settings           : cabac=1 / ref=4 / deblock=1:-3:-3 / analyse=0x3:0x113 / me=umh / subme=9 / psy=1 / fade_compensate=0.00 / psy_rd=1.00:0.15 / mixed_ref=1 / me_range=16 / chroma_me=1 / trellis=2 / 8x8dct=1 / cqm=0 / deadzone=21,11 / fast_pskip=1 / chroma_qp_offset=-3 / threads=9 / lookahead_threads=1 / sliced_threads=0 / nr=0 / decimate=1 / interlaced=0 / bluray_compat=0 / constrained_intra=0 / bframes=6 / b_pyramid=2 / b_adapt=2 / b_bias=0 / direct=3 / weightb=1 / open_gop=0 / weightp=2 / keyint=250 / keyint_min=23 / scenecut=40 / intra_refresh=0 / rc_lookahead=60 / rc=crf / mbtree=1 / crf=18.0000 / qcomp=0.60 / qpmin=10 / qpmax=69 / qpstep=4 / vbv_maxrate=40000 / vbv_bufsize=40000 / crf_max=0.0 / nal_hrd=none / ip_ratio=1.40 / aq=1:1.00
    Language                    : English
    Default                     : No
    Forced                      : No

    Audio #1
    ID                          : 2
    Format                      : AC-3
    Format/Info                 : Audio Coding 3
    Commercial name             : Dolby Digital
    Codec ID                    : A_AC3
    Duration                    : 1 h 27 min
    Bit rate mode               : Constant
    Bit rate                    : 640 kb/s
    Channel(s)                  : 6 channels
    Channel layout              : L R C LFE Ls Rs
    Sampling rate               : 48.0 kHz
    Frame rate                  : 31.250 FPS (1536 SPF)
    Compression mode            : Lossy
    Stream size                 : 403 MiB (3%)
    Language                    : Spanish
    Service kind                : Complete Main
    Default                     : Yes
    Forced                      : No

    Audio #2
    ID                          : 3
    Format                      : AC-3
    Format/Info                 : Audio Coding 3
    Commercial name             : Dolby Digital
    Codec ID                    : A_AC3
    Duration                    : 1 h 27 min
    Bit rate mode               : Constant
    Bit rate                    : 640 kb/s
    Channel(s)                  : 6 channels
    Channel layout              : L R C LFE Ls Rs
    Sampling rate               : 48.0 kHz
    Frame rate                  : 31.250 FPS (1536 SPF)
    Compression mode            : Lossy
    Stream size                 : 402 MiB (3%)
    Language                    : English
    Service kind                : Complete Main
    Default                     : No
    Forced                      : No

    Text #1
    ID                          : 4
    Format                      : UTF-8
    Codec ID                    : S_TEXT/UTF8
    Codec ID/Info               : UTF-8 Plain Text
    Duration                    : 35 min 54 s
    Bit rate                    : 1 b/s
    Count of elements           : 14
    Stream size                 : 406 Bytes (0%)
    Title                       : Forzados
    Language                    : Spanish
    Default                     : Yes
    Forced                      : No

    Text #2
    ID                          : 5
    Format                      : UTF-8
    Codec ID                    : S_TEXT/UTF8
    Codec ID/Info               : UTF-8 Plain Text
    Duration                    : 1 h 19 min
    Bit rate                    : 33 b/s
    Count of elements           : 721
    Stream size                 : 19.4 KiB (0%)
    Language                    : Spanish
    Default                     : No
    Forced                      : No

    Menu
    00:00:00.000                : en:00:00:00.000
    00:08:56.828                : en:00:08:56.828
    00:15:57.790                : en:00:15:57.790
    00:24:07.112                : en:00:24:07.112
    00:32:17.936                : en:00:32:17.936
    00:40:12.869                : en:00:40:12.869
    00:46:45.636                : en:00:46:45.636
    00:52:22.097                : en:00:52:22.097
    01:00:20.033                : en:01:00:20.033
    01:05:05.652                : en:01:05:05.652
    01:12:49.657                : en:01:12:49.657
    01:19:01.820                : en:01:19:01.820

  • Peso: 12.7 GiB

Sinopsis

Han pasado quince años desde que Hansel (Jeremy Renner) y Gretel (Gemma Arterton) vivieron la aventura que los hizo famosos. Tras probar el sabor de la sangre siendo unos niños, ambos se han convertido en unos auténticos justicieros, dispuestos a todo para vengarse. Pero ahora, sin que ellos lo sepan, también se han convertido en la presa, y tienen que enfrentarse a algo mucho más siniestro que las brujas: su pasado.

Ficha técnica

Video trailer de la película

Enlaces de descarga

Rip de Bluray

Descargar Hansel and Gretel Witch Hunters (2013) 3D Full HD 1080p Latino – CMHDD




Aportes de DPeliculasHDmega la pass es:dpeliculashdmega.org Aportes de CinemaniaHD la pass es:cinemaniahdd.com
Guardado en : Acción , Fantasía , Terror

Películas relacionadas

descargar Hansel and Gretel Witch Hunters (2013) 3D Full HD 1080p Latino – CMHDD Full 1080p 1080p gratis, Hansel and Gretel Witch Hunters (2013) 3D Full HD 1080p Latino – CMHDD Full 1080p mega 1 link, Hansel and Gretel Witch Hunters (2013) 3D Full HD 1080p Latino – CMHDD Full 1080p pelicula completa, descargar Hansel and Gretel Witch Hunters (2013) 3D Full HD 1080p Latino – CMHDD Full 1080p gratis en mega.

Hansel and Gretel Witch Hunters (2013) 3D Full HD 1080p Latino – CMHDD pelicula full hd, Hansel and Gretel Witch Hunters (2013) 3D Full HD 1080p Latino – CMHDD mega latino, Hansel and Gretel Witch Hunters (2013) 3D Full HD 1080p Latino – CMHDD 4k latino, Hansel and Gretel Witch Hunters (2013) 3D Full HD 1080p Latino – CMHDD pelicula completa, Hansel and Gretel Witch Hunters (2013) 3D Full HD 1080p Latino – CMHDD descargar gratis, descargar Hansel and Gretel Witch Hunters (2013) 3D Full HD 1080p Latino – CMHDD pelicula latino, Hansel and Gretel Witch Hunters (2013) 3D Full HD 1080p Latino – CMHDD 1 link mega, Hansel and Gretel Witch Hunters (2013) 3D Full HD 1080p Latino – CMHDD 1 link google drive, Hansel and Gretel Witch Hunters (2013) 3D Full HD 1080p Latino – CMHDD hd 1080p latino.
Comentarios 0