×

¿Problemas para descargar con Mozilla, EDGE? Deshabilita la opción "Abrir vinculos en una pestaña nueva" tal como lo muestra ésta imagen.

Hanna (2021) Tercera Temporada AMZN WEB-DL 1080p Latino

311 vistas

Información de Hanna (2021) Tercera Temporada AMZN WEB-DL 1080p Latino

Datos de la película

  • Calidad: 1080p
  • Audio: Español Latino AC3 5.1 WEB-DL - Ingles AC3 5.1 WEB-DL
  • Subtitulos: Español Latino SRT- FORZADOS SRT
  • Resolución: 1920x1080
  • Formato: MKV
  • Codec: H.264
  • Encoder: cinemaniahdd
  • Mediainfo: Clic para Mostrar Datos Ver
  • Hanna T03E01 AMZN WEB-DL 1080p Latino [CNMNHDD].mkv
    Format                      : Matroska
    Format version              : Version 4
    File size                   : 2.89 GiB
    Duration                    : 49 min 43 s
    Overall bit rate            : 8 330 kb/s
    Movie name                  : Hanna T03E01 - CinemaniaHDD.Net
    Encoded date                : UTC 2021-11-24 03:07:01
    Writing application         : mkvmerge v56.1.0 ('My Friend') 64-bit
    Writing library             : libebml v1.4.2 + libmatroska v1.6.4

    Video
    ID                          : 1
    Format                      : AVC
    Format/Info                 : Advanced Video Codec
    Format profile              : High@L4
    Format settings             : CABAC / 4 Ref Frames
    Format settings, CABAC      : Yes
    Format settings, Reference  : 4 frames
    Codec ID                    : V_MPEG4/ISO/AVC
    Duration                    : 49 min 43 s
    Bit rate mode               : Constant
    Bit rate                    : 6 408 kb/s
    Nominal bit rate            : 10 000 kb/s
    Width                       : 1 920 pixels
    Height                      : 1 080 pixels
    Display aspect ratio        : 16:9
    Frame rate mode             : Constant
    Frame rate                  : 23.976 (24000/1001) FPS
    Color space                 : YUV
    Chroma subsampling          : 4:2:0
    Bit depth                   : 8 bits
    Scan type                   : Progressive
    Bits/(Pixel*Frame)          : 0.129
    Stream size                 : 2.23 GiB (77%)
    Title                       : CinemaniaHDD
    Default                     : Yes
    Forced                      : No
    Color range                 : Limited
    Color primaries             : BT.709
    Transfer characteristics    : BT.709
    Matrix coefficients         : BT.709

    Audio #1
    ID                          : 2
    Format                      : AC-3
    Format/Info                 : Audio Coding 3
    Commercial name             : Dolby Digital
    Codec ID                    : A_AC3
    Duration                    : 49 min 43 s
    Bit rate mode               : Constant
    Bit rate                    : 640 kb/s
    Channel(s)                  : 6 channels
    Channel layout              : L R C LFE Ls Rs
    Sampling rate               : 48.0 kHz
    Frame rate                  : 31.250 FPS (1536 SPF)
    Compression mode            : Lossy
    Stream size                 : 228 MiB (8%)
    Title                       : Español latino [CinemaniaHDD]
    Language                    : Spanish
    Service kind                : Complete Main
    Default                     : Yes
    Forced                      : No

    Audio #2
    ID                          : 3
    Format                      : E-AC-3
    Format/Info                 : Enhanced AC-3
    Commercial name             : Dolby Digital Plus
    Codec ID                    : A_EAC3
    Duration                    : 49 min 43 s
    Bit rate mode               : Constant
    Bit rate                    : 640 kb/s
    Channel(s)                  : 6 channels
    Channel layout              : L R C LFE Ls Rs
    Sampling rate               : 48.0 kHz
    Frame rate                  : 31.250 FPS (1536 SPF)
    Compression mode            : Lossy
    Stream size                 : 228 MiB (8%)
    Title                       : Español latino / E-AC3 [CinemaniaHDD]
    Language                    : Spanish
    Service kind                : Complete Main
    Default                     : No
    Forced                      : No

    Audio #3
    ID                          : 4
    Format                      : E-AC-3
    Format/Info                 : Enhanced AC-3
    Commercial name             : Dolby Digital Plus
    Codec ID                    : A_EAC3
    Duration                    : 49 min 43 s
    Bit rate mode               : Constant
    Bit rate                    : 640 kb/s
    Channel(s)                  : 6 channels
    Channel layout              : L R C LFE Ls Rs
    Sampling rate               : 48.0 kHz
    Frame rate                  : 31.250 FPS (1536 SPF)
    Compression mode            : Lossy
    Stream size                 : 228 MiB (8%)
    Title                       : Inglés [CinemaniaHDD]
    Language                    : English
    Service kind                : Complete Main
    Default                     : No
    Forced                      : No

    Text #1
    ID                          : 5
    Format                      : UTF-8
    Codec ID                    : S_TEXT/UTF8
    Codec ID/Info               : UTF-8 Plain Text
    Duration                    : 43 min 35 s
    Bit rate                    : 8 b/s
    Count of elements           : 79
    Stream size                 : 2.69 KiB (0%)
    Title                       : Forzados [CinemaniaHDD]
    Language                    : Spanish
    Default                     : No
    Forced                      : Yes

    Text #2
    ID                          : 6
    Format                      : UTF-8
    Codec ID                    : S_TEXT/UTF8
    Codec ID/Info               : UTF-8 Plain Text
    Duration                    : 47 min 42 s
    Bit rate                    : 43 b/s
    Count of elements           : 521
    Stream size                 : 15.4 KiB (0%)
    Title                       : Español latino [CinemaniaHDD]
    Language                    : Spanish
    Default                     : No
    Forced                      : No

    Menu
    00:00:00.000                : Amazon Original
    00:00:05.000                : Scene 2
    00:00:34.000                : Title Sequence
    00:00:38.000                : Scene 4
    00:03:04.000                : Scene 5
    00:05:21.000                : Scene 6
    00:07:08.000                : Scene 7
    00:13:49.000                : Scene 8
    00:15:38.000                : Scene 9
    00:18:07.000                : Scene 10
    00:21:58.000                : Scene 11
    00:26:29.000                : Scene 12
    00:28:17.000                : Scene 13
    00:31:26.000                : Scene 14
    00:32:38.000                : Scene 15
    00:34:55.000                : Scene 16
    00:35:57.000                : Scene 17
    00:42:32.000                : Scene 18
    00:47:16.000                : End Credits

     

  • Peso: 2.89 GiB Aprox ---- 16.6 GiB in 6 Chapters.

Sinopsis

En la temporada 3 seguimos a Hanna en su intento de acabar con Utrax, la siniestra organización que la creó, con ayuda de la exagente rebelde de la CIA Marissa Wiegler. La historia atraviesa Europa creciendo hasta llegar a su cénit cuando Hanna y Marissa descubren la horrible verdad oculta tras la operación, y también quién estaba detrás de ella en realidad.

Ficha técnica

Video trailer de la película

Enlaces de descarga

Rip de Bluray

Descargar Hanna (2021) Tercera Temporada AMZN WEB-DL 1080p Latino




Aportes de DPeliculasHDmega la pass es:dpeliculashdmega.org Aportes de CinemaniaHD la pass es:cinemaniahdd.com
Guardado en : Action & Adventure , Drama , Series

Películas relacionadas

  • Paradise Highway (2022) HD 1080p Latino

    Paradise Highway (2022) HD 1080p Latino

    2022
    Paradise Highway (2022) HD 1080p Latino

    1h 55m 2022

    Descargar Paradise Highway (2022) HD 1080p Latino. Un camionero se ha visto obligado a pasar de contrabando...

    Director: Anna Gutto

    Género: Crimen

    Actores: Xavier Scott Evans

  • Paradise Highway (2022) PLACEBO Full HD 1080p Latino

    Paradise Highway (2022) PLACEBO Full HD 1080p Latino

    2022
    Paradise Highway (2022) PLACEBO Full HD 1080p Latino

    1h 55m 2022

    Descargar Paradise Highway (2022) PLACEBO Full HD 1080p Latino. Un camionero se ha visto obligado a pasar...

    Director: Anna Gutto

    Género: Crimen

    Actores: Xavier Scott Evans

  • Paradise Highway (2022) REMUX 1080p Latino

    Paradise Highway (2022) REMUX 1080p Latino

    2022
    Paradise Highway (2022) REMUX 1080p Latino

    1h 55m 2022

    Descargar Paradise Highway (2022) REMUX 1080p Latino. Un camionero se ha visto obligado a pasar de contrabando...

    Director: Anna Gutto

    Género: Crimen

    Actores: Xavier Scott Evans

descargar Hanna (2021) Tercera Temporada AMZN WEB-DL 1080p Latino 1080p 1080p gratis, Hanna (2021) Tercera Temporada AMZN WEB-DL 1080p Latino 1080p mega 1 link, Hanna (2021) Tercera Temporada AMZN WEB-DL 1080p Latino 1080p serie completa, descargar Hanna (2021) Tercera Temporada AMZN WEB-DL 1080p Latino 1080p gratis en mega.

Hanna (2021) Tercera Temporada AMZN WEB-DL 1080p Latino pelicula full hd, Hanna (2021) Tercera Temporada AMZN WEB-DL 1080p Latino mega latino, Hanna (2021) Tercera Temporada AMZN WEB-DL 1080p Latino 4k latino, Hanna (2021) Tercera Temporada AMZN WEB-DL 1080p Latino pelicula completa, Hanna (2021) Tercera Temporada AMZN WEB-DL 1080p Latino descargar gratis, descargar Hanna (2021) Tercera Temporada AMZN WEB-DL 1080p Latino pelicula latino, Hanna (2021) Tercera Temporada AMZN WEB-DL 1080p Latino 1 link mega, Hanna (2021) Tercera Temporada AMZN WEB-DL 1080p Latino 1 link google drive, Hanna (2021) Tercera Temporada AMZN WEB-DL 1080p Latino hd 1080p latino.
Comentarios 0