×

¿Problemas para descargar con Mozilla, EDGE? Deshabilita la opción "Abrir vinculos en una pestaña nueva" tal como lo muestra ésta imagen.

Hanna (2020) Temporada 2 AMZN 4k HDR WEB-DL 2160p Latino

379 vistas

Información de Hanna (2020) Temporada 2 AMZN 4k HDR WEB-DL 2160p Latino

Datos de la película

  • Calidad: 4K HDR
  • Audio: Español Latino E-AC3 5.1 AMAZON - Ingles E-AC3 5.1 AMAZON
  • Subtitulos: Español Latino SRT- FORZADOS SRT
  • Resolución: 3840x2160
  • Formato: MKV
  • Codec: H.264
  • Encoder: cinemaniahdd
  • Mediainfo: Clic para Mostrar Datos Ver
  • Hanna T02E01 AMZN 4K HDR WEB-DL 2160p Latino [CNMNHDD].mkv
    Format                      : Matroska
    Format version              : Version 4
    File size                   : 5.33 GiB
    Duration                    : 49 min 10 s
    Overall bit rate            : 15.5 Mb/s
    Movie name                  : Hanna T02E01 - CinemaniaHDD.Net
    Encoded date                : UTC 2020-07-03 18:07:45
    Writing application         : mkvmerge v46.0.0 ('No Deeper Escape') 64-bit
    Writing library             : libebml v1.3.10 + libmatroska v1.5.2

    Video
    ID                          : 1
    Format                      : HEVC
    Format/Info                 : High Efficiency Video Coding
    Format profile              : Main 10@L5@Main
    HDR format                  : SMPTE ST 2094 App 4, Version 0
    Codec ID                    : V_MPEGH/ISO/HEVC
    Duration                    : 49 min 10 s
    Bit rate                    : 14.2 Mb/s
    Width                       : 3 840 pixels
    Height                      : 2 160 pixels
    Display aspect ratio        : 16:9
    Frame rate mode             : Constant
    Frame rate                  : 23.976 (24000/1001) FPS
    Standard                    : NTSC
    Color space                 : YUV
    Chroma subsampling          : 4:2:0 (Type 2)
    Bit depth                   : 10 bits
    Bits/(Pixel*Frame)          : 0.072
    Stream size                 : 4.89 GiB (92%)
    Title                       : CinemaniaHDD
    Default                     : Yes
    Forced                      : No
    Color range                 : Limited
    Color primaries             : BT.2020
    Transfer characteristics    : PQ
    Matrix coefficients         : BT.2020 non-constant
    Mastering display color pri : Display P3
    Mastering display luminance : min: 0.0001 cd/m2, max: 1000 cd/m2
    Maximum Content Light Level : 736 cd/m2
    Maximum Frame-Average Light : 323 cd/m2

    Audio #1
    ID                          : 2
    Format                      : E-AC-3
    Format/Info                 : Enhanced AC-3
    Commercial name             : Dolby Digital Plus
    Codec ID                    : A_EAC3
    Duration                    : 49 min 10 s
    Bit rate mode               : Constant
    Bit rate                    : 640 kb/s
    Channel(s)                  : 6 channels
    Channel layout              : L R C LFE Ls Rs
    Sampling rate               : 48.0 kHz
    Frame rate                  : 31.250 FPS (1536 SPF)
    Compression mode            : Lossy
    Stream size                 : 225 MiB (4%)
    Title                       : Español latino [CinemaniaHDD]
    Language                    : Spanish
    Service kind                : Complete Main
    Default                     : Yes
    Forced                      : No

    Audio #2
    ID                          : 3
    Format                      : E-AC-3
    Format/Info                 : Enhanced AC-3
    Commercial name             : Dolby Digital Plus
    Codec ID                    : A_EAC3
    Duration                    : 49 min 10 s
    Bit rate mode               : Constant
    Bit rate                    : 640 kb/s
    Channel(s)                  : 6 channels
    Channel layout              : L R C LFE Ls Rs
    Sampling rate               : 48.0 kHz
    Frame rate                  : 31.250 FPS (1536 SPF)
    Compression mode            : Lossy
    Stream size                 : 225 MiB (4%)
    Title                       : Inglés [CinemaniaHDD]
    Language                    : English
    Service kind                : Complete Main
    Default                     : No
    Forced                      : No

    Text #1
    ID                          : 4
    Format                      : UTF-8
    Codec ID                    : S_TEXT/UTF8
    Codec ID/Info               : UTF-8 Plain Text
    Duration                    : 45 min 53 s
    Bit rate                    : 2 b/s
    Count of elements           : 30
    Stream size                 : 831 Bytes (0%)
    Title                       : Forzados [CinemaniaHDD]
    Language                    : Spanish
    Default                     : Yes
    Forced                      : Yes

    Text #2
    ID                          : 5
    Format                      : UTF-8
    Codec ID                    : S_TEXT/UTF8
    Codec ID/Info               : UTF-8 Plain Text
    Duration                    : 48 min 54 s
    Bit rate                    : 45 b/s
    Count of elements           : 530
    Stream size                 : 16.3 KiB (0%)
    Title                       : Español latino [CinemaniaHDD]
    Language                    : Spanish
    Default                     : No
    Forced                      : No

    Text #3
    ID                          : 6
    Format                      : UTF-8
    Codec ID                    : S_TEXT/UTF8
    Codec ID/Info               : UTF-8 Plain Text
    Duration                    : 48 min 58 s
    Bit rate                    : 57 b/s
    Count of elements           : 757
    Stream size                 : 20.5 KiB (0%)
    Title                       : Inglés [CinemaniaHDD]
    Language                    : English
    Default                     : No
    Forced                      : No

     

  • Peso: 5.33 GiB C/U APROX.

Sinopsis

Hanna intenta rescatar a Clara de las garras de Utrax con la ayuda de la atribulada agente de la CIA Marissa Wiegler, que empieza a ver en Hanna a la hija que nunca tuvo. Desde los tupidos bosques de Europa del Este hasta los vastos paisajes del norte de Inglaterra y el bullicio del campus universitario de Barcelona, acompañaremos a Hanna en su travesía en busca de su lugar en el mundo.

Ficha técnica

Video trailer de la película

Enlaces de descarga

Rip de Bluray

Descargar Hanna (2020) Temporada 2 AMZN 4k HDR WEB-DL 2160p Latino




Aportes de DPeliculasHDmega la pass es:dpeliculashdmega.org Aportes de CinemaniaHD la pass es:cinemaniahdd.com

Películas relacionadas

descargar Hanna (2020) Temporada 2 AMZN 4k HDR WEB-DL 2160p Latino 4K HDR 1080p gratis, Hanna (2020) Temporada 2 AMZN 4k HDR WEB-DL 2160p Latino 4K HDR mega 1 link, Hanna (2020) Temporada 2 AMZN 4k HDR WEB-DL 2160p Latino 4K HDR serie completa, descargar Hanna (2020) Temporada 2 AMZN 4k HDR WEB-DL 2160p Latino 4K HDR gratis en mega.

Hanna (2020) Temporada 2 AMZN 4k HDR WEB-DL 2160p Latino pelicula full hd, Hanna (2020) Temporada 2 AMZN 4k HDR WEB-DL 2160p Latino mega latino, Hanna (2020) Temporada 2 AMZN 4k HDR WEB-DL 2160p Latino 4k latino, Hanna (2020) Temporada 2 AMZN 4k HDR WEB-DL 2160p Latino pelicula completa, Hanna (2020) Temporada 2 AMZN 4k HDR WEB-DL 2160p Latino descargar gratis, descargar Hanna (2020) Temporada 2 AMZN 4k HDR WEB-DL 2160p Latino pelicula latino, Hanna (2020) Temporada 2 AMZN 4k HDR WEB-DL 2160p Latino 1 link mega, Hanna (2020) Temporada 2 AMZN 4k HDR WEB-DL 2160p Latino 1 link google drive, Hanna (2020) Temporada 2 AMZN 4k HDR WEB-DL 2160p Latino hd 1080p latino.
Comentarios 1
  • hizaki.86 - 05 julio, 2020

    Muchas gracias por subir las dos temporadas en 4K HDR.