Hanna (2019) Temporada 1 AMZN 4K HDR WEB-DL 2160p Latino

166 vistas
1 estrella2 estrellas3 estrellas4 estrellas5 estrellas (1 votos, promedio: 5,00 de 5)
Cargando...

Información de Hanna (2019) Temporada 1 AMZN 4K HDR WEB-DL 2160p Latino

Datos de la película

  • Calidad: 4K HDR
  • Audio: Español Latino E-AC3 5.1 AMAZON - Ingles E-AC3 5.1 AMAZON
  • Subtitulos: Español Latino SRT - Ingles SRT
  • Resolución: 1920x1080
  • Formato: MKV
  • Codec: H.264
  • Encoder: cinemaniahdd
  • Mediainfo: Clic para Mostrar Datos Ver
  • Hanna T01E01 AMZN 4K HDR WEB-DL 2160p Latino [CNMNHDD].mkv
    Format                      : Matroska
    Format version              : Version 4
    File size                   : 5.25 GiB
    Duration                    : 48 min 13 s
    Overall bit rate            : 15.6 Mb/s
    Movie name                  : Hanna T01E01 - CinemaniaHDD.Net
    Encoded date                : UTC 2020-07-04 00:37:32
    Writing application         : mkvmerge v46.0.0 ('No Deeper Escape') 64-bit
    Writing library             : libebml v1.3.10 + libmatroska v1.5.2

    Video
    ID                          : 1
    Format                      : HEVC
    Format/Info                 : High Efficiency Video Coding
    Format profile              : Main 10@L5@Main
    HDR format                  : SMPTE ST 2094 App 4, Version 0
    Codec ID                    : V_MPEGH/ISO/HEVC
    Duration                    : 48 min 13 s
    Bit rate                    : 14.3 Mb/s
    Width                       : 3 840 pixels
    Height                      : 2 160 pixels
    Display aspect ratio        : 16:9
    Frame rate mode             : Constant
    Frame rate                  : 23.976 (24000/1001) FPS
    Standard                    : NTSC
    Color space                 : YUV
    Chroma subsampling          : 4:2:0 (Type 2)
    Bit depth                   : 10 bits
    Bits/(Pixel*Frame)          : 0.072
    Stream size                 : 4.82 GiB (92%)
    Title                       : CinemaniaHDD
    Default                     : Yes
    Forced                      : No
    Color range                 : Limited
    Color primaries             : BT.2020
    Transfer characteristics    : PQ
    Matrix coefficients         : BT.2020 non-constant
    Mastering display color pri : Display P3
    Mastering display luminance : min: 0.0001 cd/m2, max: 1000 cd/m2
    Maximum Content Light Level : 988 cd/m2
    Maximum Frame-Average Light : 123 cd/m2

    Audio #1
    ID                          : 2
    Format                      : E-AC-3
    Format/Info                 : Enhanced AC-3
    Commercial name             : Dolby Digital Plus
    Codec ID                    : A_EAC3
    Duration                    : 48 min 13 s
    Bit rate mode               : Constant
    Bit rate                    : 640 kb/s
    Channel(s)                  : 6 channels
    Channel layout              : L R C LFE Ls Rs
    Sampling rate               : 48.0 kHz
    Frame rate                  : 31.250 FPS (1536 SPF)
    Compression mode            : Lossy
    Stream size                 : 221 MiB (4%)
    Title                       : Español latino [CinemaniaHDD]
    Language                    : Spanish
    Service kind                : Complete Main
    Default                     : Yes
    Forced                      : No

    Audio #2
    ID                          : 3
    Format                      : E-AC-3
    Format/Info                 : Enhanced AC-3
    Commercial name             : Dolby Digital Plus
    Codec ID                    : A_EAC3
    Duration                    : 48 min 13 s
    Bit rate mode               : Constant
    Bit rate                    : 640 kb/s
    Channel(s)                  : 6 channels
    Channel layout              : L R C LFE Ls Rs
    Sampling rate               : 48.0 kHz
    Frame rate                  : 31.250 FPS (1536 SPF)
    Compression mode            : Lossy
    Stream size                 : 221 MiB (4%)
    Title                       : Inglés [CinemaniaHDD]
    Language                    : English
    Service kind                : Complete Main
    Default                     : No
    Forced                      : No

    Text #1
    ID                          : 4
    Format                      : UTF-8
    Codec ID                    : S_TEXT/UTF8
    Codec ID/Info               : UTF-8 Plain Text
    Duration                    : 45 min 4 s
    Bit rate                    : 22 b/s
    Count of elements           : 317
    Stream size                 : 7.42 KiB (0%)
    Title                       : Español latino [CinemaniaHDD]
    Language                    : Spanish
    Default                     : No
    Forced                      : No

    Text #2
    ID                          : 5
    Format                      : UTF-8
    Codec ID                    : S_TEXT/UTF8
    Codec ID/Info               : UTF-8 Plain Text
    Duration                    : 47 min 26 s
    Bit rate                    : 34 b/s
    Count of elements           : 560
    Stream size                 : 12.0 KiB (0%)
    Title                       : Inglés [CinemaniaHDD]
    Language                    : English
    Default                     : No
    Forced                      : No

     

  • Peso: 5.25 GiB C/U APROX.

Sinopsis

Este thriller y el drama de la mayoría de edad sigue el viaje de una joven extraordinaria mientras evade la incansable búsqueda de un agente de la CIA fuera del libro y trata de descubrir la verdad detrás de quién es ella. Basado en la película de Joe Wright de 2011.

Ficha técnica

Video trailer de la película

Enlaces de descarga

Rip de Bluray

Descargar Hanna (2019) Temporada 1 AMZN 4K HDR WEB-DL 2160p Latino




Aportes de DPeliculasHDmega la pass es:dpeliculashdmega.org Aportes de CinemaniaHD la pass es:cinemaniahdd.com

Películas relacionadas

  • El niño con el pijama de rayas (2008) 1080p Latino

    El niño con el pijama de rayas (2008) 1080p Latino

    2008
    El niño con el pijama de rayas (2008) 1080p Latino

    0.0 1h 34m 2008

    Descargar El niño con el pijama de rayas (2008) 1080p Latino. Berlín, 1942. Bruno tiene ocho años...

    Director: Mark Herman

    Género: Bélica

    Actores: Zsuzsa Holl

  • Ojos Grandes (2014) 1080p Latino

    Ojos Grandes (2014) 1080p Latino

    2014
    Ojos Grandes (2014) 1080p Latino

    0.0 1h 46m 2014

    Descargar Ojos Grandes (2014) 1080p Latino. 'Big Eyes' está basada en el caso real de Margaret y Walter...

    Director: Tim Burton

    Género: Drama

    Actores: Vincent Gale

  • Ojos Grandes (2014) Full HD 1080p Latino

    Ojos Grandes (2014) Full HD 1080p Latino

    2014
    Ojos Grandes (2014) Full HD 1080p Latino

    5.0 1h 46m 2014

    Descargar Ojos Grandes (2014) Full HD 1080p Latino. 'Big Eyes' está basada en el caso real de Margaret...

    Director: Tim Burton

    Género: Actualizadas

    Actores: Tony Alcantar

Hanna (2019) Temporada 1 AMZN 4K HDR WEB-DL 2160p Latino pelicula full hd, Hanna (2019) Temporada 1 AMZN 4K HDR WEB-DL 2160p Latino mega latino, Hanna (2019) Temporada 1 AMZN 4K HDR WEB-DL 2160p Latino 4k latino, Hanna (2019) Temporada 1 AMZN 4K HDR WEB-DL 2160p Latino pelicula completa, Hanna (2019) Temporada 1 AMZN 4K HDR WEB-DL 2160p Latino descargar gratis, descargar Hanna (2019) Temporada 1 AMZN 4K HDR WEB-DL 2160p Latino pelicula latino, Hanna (2019) Temporada 1 AMZN 4K HDR WEB-DL 2160p Latino 1 link mega, Hanna (2019) Temporada 1 AMZN 4K HDR WEB-DL 2160p Latino 1 link google drive, Hanna (2019) Temporada 1 AMZN 4K HDR WEB-DL 2160p Latino hd 1080p latino.
Comentarios 1
  • hizaki.86 - 05 julio, 2020

    Muchas gracias, la estaba buscando en HDR, gracias!