Han Solo una historia de Star Wars (2018) Full 1080p Latino [Placebo]

3.798 vistas
1 estrella2 estrellas3 estrellas4 estrellas5 estrellas (5 votos, promedio: 2,60 de 5)
Cargando…

Información de Han Solo una historia de Star Wars (2018) Full 1080p Latino [Placebo]

Datos de la película

  • Calidad: Full 1080p
  • Audio: Español Latino AC3 5.1 BLURAY - Ingles DTS 5.1 BLURAY
  • Subtitulos: Español Latino PGS - Ingles PGS
  • Resolución: 1920x1080p
  • Formato: MKV
  • Codec: H.264
  • Encoder: Dracarys
  • Mediainfo: Clic para Mostrar Datos Ver
  • Format                                   : Matroska
    Format version                           : Version 4 / Version 2
    File size                                : 4.88 GiB
    Duration                                 : 2 h 14 min
    Overall bit rate                         : 5 182 kb/s
    Movie name                               : CinemaniaHDD.net
    Encoded date                             : UTC 2018-09-17 01:57:49 / UTC 2018-09-16T03:05:11Z
    Writing application                      : mkvmerge v15.0.0 ('Duel with the Devil') 64-bit
    Writing library                          : libebml v1.3.5 + libmatroska v1.4.5 / Lavf57.7.2

    Video
    ID                                       : 1
    Format                                   : AVC
    Format/Info                              : Advanced Video Codec
    Format profile                           : High@L4.1
    Format settings                          : CABAC / 4 Ref Frames
    Format settings, CABAC                   : Yes
    Format settings, RefFrames               : 4 frames
    Codec ID                                 : V_MPEG4/ISO/AVC
    Duration                                 : 2 h 14 min
    Bit rate                                 : 2 930 kb/s
    Width                                    : 1 920 pixels
    Height                                   : 1 080 pixels
    Display aspect ratio                     : 16:9
    Frame rate mode                          : Constant
    Frame rate                               : 23.976 (24000/1001) FPS
    Color space                              : YUV
    Chroma subsampling                       : 4:2:0
    Bit depth                                : 8 bits
    Scan type                                : Progressive
    Bits/(Pixel*Frame)                       : 0.059
    Stream size                              : 2.76 GiB (57%)
    Title                                    : Han Solo una historia de Star Wars (2018) Full 1080p Latino
    Writing library                          : x264 core 148 r2708 86b7198
    Encoding settings                        : cabac=1 / ref=4 / deblock=1:0:0 / analyse=0x3:0x133 / me=tesa / subme=11 / psy=1 / psy_rd=1.00:0.00 / mixed_ref=1 / me_range=24 / chroma_me=1 / trellis=2 / 8x8dct=1 / cqm=0 / deadzone=21,11 / fast_pskip=0 / chroma_qp_offset=-2 / threads=34 / lookahead_threads=8 / sliced_threads=0 / nr=0 / decimate=1 / interlaced=0 / bluray_compat=0 / constrained_intra=0 / bframes=16 / b_pyramid=2 / b_adapt=2 / b_bias=0 / direct=3 / weightb=1 / open_gop=0 / weightp=2 / keyint=240 / keyint_min=24 / scenecut=40 / intra_refresh=0 / rc_lookahead=60 / rc=crf / mbtree=1 / crf=20.0 / qcomp=0.60 / qpmin=0 / qpmax=69 / qpstep=4 / vbv_maxrate=62500 / vbv_bufsize=78125 / crf_max=0.0 / nal_hrd=none / filler=0 / ip_ratio=1.40 / aq=1:1.00
    Language                                 : English
    Default                                  : Yes
    Forced                                   : No
    Color range                              : Limited
    Color primaries                          : BT.709
    Transfer characteristics                 : BT.709
    Matrix coefficients                      : BT.709
    Statistics Tags Issue                    : mkvmerge v15.0.0 ('Duel with the Devil') 64-bit 2018-09-17 01:57:49 / mkvmerge v15.0.0 ('Duel with the Devil') 64-bit 2018-09-17 01:57:49 / UTC 2018-09-16T03:05:11Z
    FromStats_BitRate                        : 3006916
    FromStats_Duration                       : 02:14:46.704000000
    FromStats_FrameCount                     : 193887
    FromStats_StreamSize                     : 3039505109

    Audio #1
    ID                                       : 2
    Format                                   : AC-3
    Format/Info                              : Audio Coding 3
    Format settings, Endianness              : Big
    Codec ID                                 : A_AC3
    Duration                                 : 2 h 14 min
    Bit rate mode                            : Constant
    Bit rate                                 : 640 kb/s
    Channel(s)                               : 6 channels
    Channel positions                        : Front: L C R, Side: L R, LFE
    Sampling rate                            : 48.0 kHz
    Frame rate                               : 31.250 FPS (1536 SPF)
    Bit depth                                : 16 bits
    Compression mode                         : Lossy
    Stream size                              : 617 MiB (12%)
    Language                                 : Spanish
    Service kind                             : Complete Main
    Default                                  : Yes
    Forced                                   : No
    Statistics Tags Issue                    : mkvmerge v15.0.0 ('Duel with the Devil') 64-bit 2018-09-17 01:57:49 / mkvmerge v15.0.0 ('Duel with the Devil') 64-bit 2018-09-17 01:57:49 / UTC 2018-09-16T03:05:11Z
    FromStats_BitRate                        : 640000
    FromStats_Duration                       : 02:14:46.752000000
    FromStats_FrameCount                     : 252711
    FromStats_StreamSize                     : 646940160

    Audio #2
    ID                                       : 3
    Format                                   : DTS
    Format/Info                              : Digital Theater Systems
    Mode                                     : 16
    Format settings, Endianness              : Big
    Codec ID                                 : A_DTS
    Duration                                 : 2 h 14 min
    Bit rate mode                            : Constant
    Bit rate                                 : 1 509 kb/s
    Channel(s)                               : 6 channels
    Channel positions                        : Front: L C R, Side: L R, LFE
    Sampling rate                            : 48.0 kHz
    Frame rate                               : 93.750 FPS (512 SPF)
    Bit depth                                : 24 bits
    Compression mode                         : Lossy
    Stream size                              : 1.42 GiB (29%)
    Language                                 : English
    Default                                  : No
    Forced                                   : No
    Statistics Tags Issue                    : mkvmerge v15.0.0 ('Duel with the Devil') 64-bit 2018-09-17 01:57:49 / mkvmerge v15.0.0 ('Duel with the Devil') 64-bit 2018-09-17 01:57:49 / UTC 2018-09-16T03:05:11Z
    FromStats_BitRate                        : 1509000
    FromStats_Duration                       : 02:14:46.720000000
    FromStats_FrameCount                     : 758130
    FromStats_StreamSize                     : 1525357560

    Text #1
    ID                                       : 4
    Format                                   : PGS
    Muxing mode                              : zlib
    Codec ID                                 : S_HDMV/PGS
    Codec ID/Info                            : Picture based subtitle format used on BDs/HD-DVDs
    Language                                 : English
    Default                                  : No
    Forced                                   : No
    Statistics Tags Issue                    : mkvmerge v15.0.0 ('Duel with the Devil') 64-bit 2018-09-17 01:57:49 / mkvmerge v15.0.0 ('Duel with the Devil') 64-bit 2018-09-17 01:57:49 / UTC 2018-09-16T03:05:11Z
    FromStats_BitRate                        : 42333
    FromStats_Duration                       : 02:05:11.315000000
    FromStats_FrameCount                     : 4496
    FromStats_StreamSize                     : 39747642

    Text #2
    ID                                       : 5
    Format                                   : PGS
    Muxing mode                              : zlib
    Codec ID                                 : S_HDMV/PGS
    Codec ID/Info                            : Picture based subtitle format used on BDs/HD-DVDs
    Language                                 : Spanish
    Default                                  : No
    Forced                                   : No
    Statistics Tags Issue                    : mkvmerge v15.0.0 ('Duel with the Devil') 64-bit 2018-09-17 01:57:49 / mkvmerge v15.0.0 ('Duel with the Devil') 64-bit 2018-09-17 01:57:49 / UTC 2018-09-16T03:05:11Z
    FromStats_BitRate                        : 33804
    FromStats_Duration                       : 02:07:25.157000000
    FromStats_FrameCount                     : 3672
    FromStats_StreamSize                     : 32304800

    Text #3
    ID                                       : 6
    Format                                   : PGS
    Muxing mode                              : zlib
    Codec ID                                 : S_HDMV/PGS
    Codec ID/Info                            : Picture based subtitle format used on BDs/HD-DVDs
    Title                                    : Forzados
    Language                                 : Spanish
    Default                                  : Yes
    Forced                                   : Yes
    Statistics Tags Issue                    : mkvmerge v15.0.0 ('Duel with the Devil') 64-bit 2018-09-17 01:57:49 / mkvmerge v15.0.0 ('Duel with the Devil') 64-bit 2018-09-17 01:57:49 / UTC 2018-09-16T03:05:11Z
    FromStats_BitRate                        : 420
    FromStats_Duration                       : 01:17:06.882000000
    FromStats_FrameCount                     : 34
    FromStats_StreamSize                     : 243340

    Menu
    00:00:00.000                             : :Chapter 1
    00:00:53.845                             : :Chapter 2
    00:02:10.213                             : :Chapter 3
    00:03:53.150                             : :Chapter 4
    00:06:00.485                             : :Chapter 5
    00:09:27.567                             : :Chapter 6
    00:13:16.045                             : :Chapter 7
    00:14:14.062                             : :Chapter 8
    00:16:12.305                             : :Chapter 9
    00:19:45.142                             : :Chapter 10
    00:22:43.863                             : :Chapter 11
    00:24:37.309                             : :Chapter 12
    00:27:00.077                             : :Chapter 13
    00:30:02.968                             : :Chapter 14
    00:32:54.723                             : :Chapter 15
    00:39:09.806                             : :Chapter 16
    00:41:59.267                             : :Chapter 17
    00:43:20.223                             : :Chapter 18
    00:44:32.170                             : :Chapter 19
    00:48:03.798                             : :Chapter 20
    00:51:58.365                             : :Chapter 21
    00:53:17.569                             : :Chapter 22
    00:57:23.565                             : :Chapter 23
    01:00:16.822                             : :Chapter 24
    01:02:40.924                             : :Chapter 25
    01:04:51.304                             : :Chapter 26
    01:05:29.551                             : :Chapter 27
    01:07:12.070                             : :Chapter 28
    01:08:05.957                             : :Chapter 29
    01:10:00.154                             : :Chapter 30
    01:12:44.235                             : :Chapter 31
    01:14:40.893                             : :Chapter 32
    01:18:30.915                             : :Chapter 33
    01:23:15.782                             : :Chapter 34
    01:26:32.688                             : :Chapter 35
    01:30:33.178                             : :Chapter 36
    01:35:19.714                             : :Chapter 37
    01:37:04.902                             : :Chapter 38
    01:38:52.844                             : :Chapter 39
    01:41:18.573                             : :Chapter 40
    01:43:02.718                             : :Chapter 41
    01:45:27.863                             : :Chapter 42
    01:46:32.219                             : :Chapter 43
    01:49:46.038                             : :Chapter 44
    01:53:33.932                             : :Chapter 45
    01:57:13.944                             : :Chapter 46
    01:58:55.170                             : :Chapter 47
    02:01:34.871                             : :Chapter 48
    02:03:20.935                             : :Chapter 49
    02:06:09.395                             : :Chapter 50

  • Peso: 4.88 GiB

Sinopsis

Precuela de la saga Star Wars, en la que se conocerán los primeros pasos que dio el personaje de Han Solo, desde joven hasta convertirse en el antihéroe que vimos en “Una nueva esperanza”, antes de que se encontrase con Luke y Obi-Wan en la cantina de Mos Eisley.

Ficha técnica

Video trailer de la película

Enlaces de descarga

Rip de Bluray

Descargar Han Solo una historia de Star Wars (2018) Full 1080p Latino [Placebo]




Aportes de DPeliculasHDmega la pass es:dpeliculashdmega.org Aportes de CinemaniaHD la pass es:cinemaniahdd.com

Películas relacionadas

  • El Justiciero 2 (2018) Full 1080p Latino

    2018
    El Justiciero 2 (2018) Full 1080p Latino

    5.0 2h 0m 2018

    Descargar El Justiciero 2 (2018) Full 1080p Latino, Mega, Google Drive. Robert McCall (Denzel Washington)...

    Director: Donald Sparks

    Género: Acción

    Actores: Wesley Pereira

  • El Justiciero 2 (2018) 1080p Latino

    2018
    El Justiciero 2 (2018) 1080p Latino

    2.5 2h 0m 2018

    Descargar El Justiciero 2 (2018) 1080p Latino, Mega, Google Drive. Robert McCall (Denzel Washington)...

    Director: Donald Sparks

    Género: Acción

    Actores: Wesley Pereira

Comentarios 8
  • Andrew - 22 septiembre, 2018

    Placebo con 2,930 kbs en bitrate???

  • Mario - 21 septiembre, 2018

    Van a subir alguna version que no tenga los titulos del principio en español?

    • Dracarys - 22 septiembre, 2018

      no

  • Josué GM - 17 septiembre, 2018

    La versión placebo en pocas palabras es una versión mejorada very slow. Mayor calidad aunque al final no cambia mucho en el peso pero sin en la calidad de la imagen, se nota en tv mayor a 50′

  • Jefe - 17 septiembre, 2018

    Que significa PLACEBO ?

    • Angel - 17 septiembre, 2018

      Alguien que pueda explicar que es (PLACEBO) lo que mencionan en el titulo de la película . Gracias

  • ocpgaiden - 17 septiembre, 2018

    Gracias por Han Solo, saludos

  • ferchuu - 17 septiembre, 2018

    que significa version PLACEBO, perdon mi ignorancia