×

¿Problemas para descargar con Mozilla, EDGE? Deshabilita la opción "Abrir vinculos en una pestaña nueva" tal como lo muestra ésta imagen.

Han Solo: Una historia de Star Wars (2018) REMUX 1080p Latino

1.054 vistas

Información de Han Solo: Una historia de Star Wars (2018) REMUX 1080p Latino

Datos de la película

  • Calidad: Full 1080p
  • Audio: Español Latino AC3 5.1 BLURAY - Ingles DTS-HD Master 7.1 BLURAY
  • Subtitulos: Español Latino PGS - Ingles PGS
  • Resolución: 1920x1080p
  • Formato: MKV
  • Codec: H.264
  • Encoder: CinefiloCool
  • Mediainfo: Clic para Mostrar Datos Ver
  • Han Solo (2018) REMUX 1080p Latino-CMHDD.mkv
    Format                      : Matroska
    Format version              : Version 4
    File size                   : 36.2 GiB
    Duration                    : 2 h 14 min
    Overall bit rate mode       : Variable
    Overall bit rate            : 38.5 Mb/s
    Movie name                  : Han Solo - Una Historia De Star Wars (2018) CinemaniaHDD.Net
    Encoded date                : UTC 2022-05-14 03:56:24
    Writing application         : mkvmerge v56.1.0 ('My Friend') 64-bit
    Writing library             : libebml v1.4.2 + libmatroska v1.6.4
    Attachments                 : CINEMANIAHD.png

    Video
    ID                          : 1
    Format                      : AVC
    Format/Info                 : Advanced Video Codec
    Format profile              : High@L4.1
    Format settings             : CABAC / 4 Ref Frames
    Format settings, CABAC      : Yes
    Format settings, Reference  : 4 frames
    Codec ID                    : V_MPEG4/ISO/AVC
    Duration                    : 2 h 14 min
    Bit rate mode               : Variable
    Bit rate                    : 32.4 Mb/s
    Maximum bit rate            : 36.0 Mb/s
    Width                       : 1 920 pixels
    Height                      : 1 080 pixels
    Display aspect ratio        : 16:9
    Frame rate mode             : Constant
    Frame rate                  : 23.976 (24000/1001) FPS
    Color space                 : YUV
    Chroma subsampling          : 4:2:0
    Bit depth                   : 8 bits
    Scan type                   : Progressive
    Bits/(Pixel*Frame)          : 0.652
    Stream size                 : 30.5 GiB (84%)
    Title                       : REMUX HD1080p [CinemaniaHDD]
    Default                     : Yes
    Forced                      : Yes

    Audio #1
    ID                          : 2
    Format                      : AC-3
    Format/Info                 : Audio Coding 3
    Commercial name             : Dolby Digital
    Codec ID                    : A_AC3
    Duration                    : 2 h 14 min
    Bit rate mode               : Constant
    Bit rate                    : 640 kb/s
    Channel(s)                  : 6 channels
    Channel layout              : L R C LFE Ls Rs
    Sampling rate               : 48.0 kHz
    Frame rate                  : 31.250 FPS (1536 SPF)
    Compression mode            : Lossy
    Stream size                 : 617 MiB (2%)
    Title                       : Español Latino [CinemaniaHDD]
    Language                    : Spanish
    Service kind                : Complete Main
    Default                     : Yes
    Forced                      : Yes

    Audio #2
    ID                          : 3
    Format                      : DTS XLL
    Format/Info                 : Digital Theater Systems
    Commercial name             : DTS-HD Master Audio
    Codec ID                    : A_DTS
    Duration                    : 2 h 14 min
    Bit rate mode               : Variable
    Bit rate                    : 5 407 kb/s
    Channel(s)                  : 8 channels
    Channel layout              : C L R LFE Lb Rb Lss Rss
    Sampling rate               : 48.0 kHz
    Frame rate                  : 93.750 FPS (512 SPF)
    Bit depth                   : 24 bits
    Compression mode            : Lossless
    Stream size                 : 5.09 GiB (14%)
    Title                       : Ingles [CinemaniaHDD]
    Language                    : English
    Default                     : No
    Forced                      : No

    Text #1
    ID                          : 4
    Format                      : PGS
    Muxing mode                 : zlib
    Codec ID                    : S_HDMV/PGS
    Codec ID/Info               : Picture based subtitle format used on BDs/HD-DVDs
    Duration                    : 1 h 20 min
    Bit rate                    : 403 b/s
    Count of elements           : 36
    Stream size                 : 238 KiB (0%)
    Title                       : Forzados-PGS [CinemaniaHDD]
    Language                    : Spanish
    Default                     : No
    Forced                      : No

    Text #2
    ID                          : 5
    Format                      : PGS
    Muxing mode                 : zlib
    Codec ID                    : S_HDMV/PGS
    Codec ID/Info               : Picture based subtitle format used on BDs/HD-DVDs
    Duration                    : 2 h 7 min
    Bit rate                    : 33.8 kb/s
    Count of elements           : 3672
    Stream size                 : 30.8 MiB (0%)
    Title                       : Español-PGS [CinemaniaHDD]
    Language                    : Spanish
    Default                     : No
    Forced                      : No

    Text #3
    ID                          : 6
    Format                      : PGS
    Muxing mode                 : zlib
    Codec ID                    : S_HDMV/PGS
    Codec ID/Info               : Picture based subtitle format used on BDs/HD-DVDs
    Duration                    : 2 h 5 min
    Bit rate                    : 42.3 kb/s
    Count of elements           : 4496
    Stream size                 : 37.9 MiB (0%)
    Title                       : Ingles-PGS [CinemaniaHDD]
    Language                    : English
    Default                     : No
    Forced                      : No

    Text #4
    ID                          : 7
    Format                      : UTF-8
    Codec ID                    : S_TEXT/UTF8
    Codec ID/Info               : UTF-8 Plain Text
    Duration                    : 2 h 7 min
    Bit rate                    : 0 b/s
    Count of elements           : 28
    Stream size                 : 880 Bytes (0%)
    Title                       : Forzados-SRT [CinemaniaHDD]
    Language                    : Spanish
    Default                     : Yes
    Forced                      : Yes

    Text #5
    ID                          : 8
    Format                      : UTF-8
    Codec ID                    : S_TEXT/UTF8
    Codec ID/Info               : UTF-8 Plain Text
    Duration                    : 2 h 7 min
    Bit rate                    : 54 b/s
    Count of elements           : 1836
    Stream size                 : 50.6 KiB (0%)
    Title                       : Español-SRT [CinemaniaHDD]
    Language                    : Spanish
    Default                     : No
    Forced                      : No

    Menu
    00:00:00.000                : :Opening Credits
    00:00:53.845                : :Streets of Corellia
    00:02:10.213                : :Qi'ra
    00:03:53.150                : :Den of The White Worms
    00:06:00.485                : :Corellian Speeder Chase
    00:09:27.567                : :Coronet Spaceport
    00:13:16.045                : :Recruitment
    00:14:14.020                : :Mimban Battlefield
    00:16:12.305                : :None-of-Your-Business Company
    00:19:45.267                : :The Beast
    00:22:43.904                : :Mimban Escape
    00:24:37.351                : :Vandor
    00:27:00.202                : :Camfire Stories
    00:30:02.926                : :Conveyex Heist
    00:32:54.848                : :Marauder Attack
    00:39:09.764                : :"You're in This Life For Good"
    00:41:59.225                : :The Yacht
    00:43:20.181                : :Dryden Vos
    00:44:32.211                : :Reunion
    00:48:03.756                : :Deal with Crimson Dawn
    00:51:58.490                : :The Lodge
    00:53:17.528                : :Full Sabacc
    00:57:23.649                : :Lando and L3
    01:00:16.780                : :Millennium Falcon
    01:02:40.882                : :"Buckle Up, Baby"
    01:04:51.262                : :"People Are Predictable"
    01:05:29.509                : :Han and Qi'ra
    01:07:12.028                : :"Trust No One"
    01:08:05.915                : :Not Cpmpatible
    01:10:00.113                : :Arrival on Kessel
    01:12:44.193                : :Into the Mines
    01:14:40.893                : :Revolt
    01:18:30.873                : :Kessel Shootout
    01:23:15.782                : :Into the Maelstrom
    01:26:32.646                : :Kessel Run
    01:30:33.261                : :Escaping the Maw
    01:35:19.672                : :Savareen
    01:37:04.861                : :The Good Guy
    01:38:52.802                : :Marauders Return
    01:41:18.531                : :Enfys Nest
    01:43:02.677                : :One Last Score
    01:45:27.947                : :The Delivery
    01:46:32.219                : :Explosive Stuff
    01:49:45.996                : :Double-Crossings
    01:53:33.890                : :Duel with Dryden
    01:57:14.027                : :Secret Leader
    01:58:55.128                : :Showdown
    02:01:34.829                : :Rebellion's Dawn
    02:03:20.935                : :Sabacc Rematch
    02:06:09.604                : :End Credits

  • Peso: 36.2 GiB

Sinopsis

Descargar Han Solo: Una historia de Star Wars (2018) REMUX 1080p Latino. A bordo del Halcón Milenario HAN SOLO: UNA HISTORIA DE STAR WARS trae una nueva aventura con el contrabandista más querido de todos los tiempos. A través de una serie de arriesgadas travesuras en un oscuro y peligroso submundo criminal, Han Solo conoce a su futuro amigo y copiloto y encuentra al apostador Lando Calrissian en un viaje que marcará el curso de uno de los héroes más inesperados de Star Wars.

Nota: Intro Con Textos En Español 🙂

Resubido para VIP!!!

Ficha técnica

Video trailer de la película

Enlaces de descarga

Rip de Bluray

Descargar Han Solo: Una historia de Star Wars (2018) REMUX 1080p Latino




Aportes de DPeliculasHDmega la pass es:dpeliculashdmega.org Aportes de CinemaniaHD la pass es:cinemaniahdd.com
Guardado en : Aventura , Ciencia ficción , Remux

Películas relacionadas

  • Ad Astra (2019) REMUX 4K HDR Latino – CMHDD

    Ad Astra (2019) REMUX 4K HDR Latino – CMHDD

    2019
    Ad Astra (2019) REMUX 4K HDR Latino – CMHDD

    2h 3m 2019

    El futuro cercano, un tiempo en el que tanto la esperanza como la adversidad impulsan a la humanidad...

    Director: Sharron Reynolds-Enriquez

    Género: Ciencia ficción

    Actores: Zoro Saro Manuel Daghlian

  • La Guerra Del Futuro (2022) NF WEB-DL 1080p Latino

    La Guerra Del Futuro (2022) NF WEB-DL 1080p Latino

    2022
    La Guerra Del Futuro (2022) NF WEB-DL 1080p Latino

    1h 41m 2022

    Descargar La Guerra Del Futuro (2022) NF WEB-DL 1080p Latino. Tras la caída de un meteorito que alberga...

    Director: Ng Yuen-fai

    Género: Acción

    Actores: Tse Kwan-Ho

  • Super… ¿quién? (2021) REMUX 1080p Latino

    Super… ¿quién? (2021) REMUX 1080p Latino

    2022
    Super… ¿quién? (2021) REMUX 1080p Latino

    1h 22m 2022

    Descargar Super... ¿quién? (2021) REMUX 1080p Latino. Cedric (Philippe Lacheau) intenta ganarse la...

    Director: Philippe Lacheau

    Género: Acción

    Actores: Yves Yan

  • Trol (2022) NF WEB-DL 1080p Latino

    Trol (2022) NF WEB-DL 1080p Latino

    2022
    Trol (2022) NF WEB-DL 1080p Latino

    1h 43m 2022

    Las autoridades recurren a una audaz paleontóloga para evitar que un trol ancestral, al que ha despertado...

    Director: Sascha Marden

    Género: Acción

    Actores: Yusuf Toosh Ibra

  • Observada (2022) REMUX 1080p Latino

    Observada (2022) REMUX 1080p Latino

    2022
    Observada (2022) REMUX 1080p Latino

    1h 35m 2022

    Descargar Observada (2022) REMUX 1080p Latino. Una joven se muda a un nuevo apartamento con su prometido...

    Director: Chloe Okuno

    Género: Misterio

    Actores: Tudor Petruț

descargar Han Solo: Una historia de Star Wars (2018) REMUX 1080p Latino Full 1080p 1080p gratis, Han Solo: Una historia de Star Wars (2018) REMUX 1080p Latino Full 1080p mega 1 link, Han Solo: Una historia de Star Wars (2018) REMUX 1080p Latino Full 1080p pelicula completa, descargar Han Solo: Una historia de Star Wars (2018) REMUX 1080p Latino Full 1080p gratis en mega.

Han Solo: Una historia de Star Wars (2018) REMUX 1080p Latino pelicula full hd, Han Solo: Una historia de Star Wars (2018) REMUX 1080p Latino mega latino, Han Solo: Una historia de Star Wars (2018) REMUX 1080p Latino 4k latino, Han Solo: Una historia de Star Wars (2018) REMUX 1080p Latino pelicula completa, Han Solo: Una historia de Star Wars (2018) REMUX 1080p Latino descargar gratis, descargar Han Solo: Una historia de Star Wars (2018) REMUX 1080p Latino pelicula latino, Han Solo: Una historia de Star Wars (2018) REMUX 1080p Latino 1 link mega, Han Solo: Una historia de Star Wars (2018) REMUX 1080p Latino 1 link google drive, Han Solo: Una historia de Star Wars (2018) REMUX 1080p Latino hd 1080p latino.
Comentarios 0