Hambre de poder (2016) Full 1080p Latino

787 vistas
1 estrella2 estrellas3 estrellas4 estrellas5 estrellas (5 votos, promedio: 3,40 de 5)
Cargando…

Información de Hambre de poder (2016) Full 1080p Latino

Datos de la película

  • Calidad: Full 1080p
  • Audio: Español Latino DTS 5.1 BLURAY - Ingles DTS 5.1 BLURAY
  • Subtitulos: Español Latino PGS - Ingles PGS
  • Resolución: 1920x1080p
  • Formato: MKV
  • Codec: H.264
  • Encoder: Dracarys
  • Mediainfo: Clic para Mostrar Datos Ver
  • Format                                   : Matroska
    Format version                           : Version 4 / Version 2
    File size                                : 5.10 GiB
    Duration                                 : 1 h 55 min
    Overall bit rate                         : 6 335 kb/s
    Movie name                               : CinemaniaHDD.net
    Encoded date                             : UTC 2018-06-12 22:46:35 / UTC 2018-05-27T01:16:13Z
    Writing application                      : mkvmerge v15.0.0 ('Duel with the Devil') 64-bit
    Writing library                          : libebml v1.3.5 + libmatroska v1.4.5 / Lavf57.7.2

    Video
    ID                                       : 1
    Format                                   : AVC
    Format/Info                              : Advanced Video Codec
    Format profile                           : High@L4.1
    Format settings                          : CABAC / 4 Ref Frames
    Format settings, CABAC                   : Yes
    Format settings, RefFrames               : 4 frames
    Codec ID                                 : V_MPEG4/ISO/AVC
    Duration                                 : 1 h 55 min
    Bit rate                                 : 3 190 kb/s
    Width                                    : 1 920 pixels
    Height                                   : 1 080 pixels
    Display aspect ratio                     : 16:9
    Frame rate mode                          : Constant
    Frame rate                               : 23.976 (24000/1001) FPS
    Color space                              : YUV
    Chroma subsampling                       : 4:2:0
    Bit depth                                : 8 bits
    Scan type                                : Progressive
    Bits/(Pixel*Frame)                       : 0.064
    Stream size                              : 2.57 GiB (50%)
    Title                                    : Hambre de poder (2016) Full 1080p Latino
    Writing library                          : x264 core 148 r2708 86b7198
    Encoding settings                        : cabac=1 / ref=4 / deblock=1:0:0 / analyse=0x3:0x133 / me=esa / subme=9 / psy=1 / psy_rd=1.00:0.00 / mixed_ref=1 / me_range=16 / chroma_me=1 / trellis=2 / 8x8dct=1 / cqm=0 / deadzone=21,11 / fast_pskip=1 / chroma_qp_offset=-2 / threads=34 / lookahead_threads=2 / sliced_threads=0 / nr=0 / decimate=1 / interlaced=0 / bluray_compat=0 / constrained_intra=0 / bframes=3 / b_pyramid=2 / b_adapt=2 / b_bias=0 / direct=3 / weightb=1 / open_gop=0 / weightp=2 / keyint=240 / keyint_min=24 / scenecut=40 / intra_refresh=0 / rc_lookahead=60 / rc=crf / mbtree=1 / crf=20.0 / qcomp=0.60 / qpmin=0 / qpmax=69 / qpstep=4 / vbv_maxrate=62500 / vbv_bufsize=78125 / crf_max=0.0 / nal_hrd=none / filler=0 / ip_ratio=1.40 / aq=1:1.00
    Language                                 : English
    Default                                  : Yes
    Forced                                   : No
    Color range                              : Limited
    Color primaries                          : BT.709
    Transfer characteristics                 : BT.709
    Matrix coefficients                      : BT.709
    Statistics Tags Issue                    : mkvmerge v15.0.0 ('Duel with the Devil') 64-bit 2018-06-12 22:46:35 / mkvmerge v15.0.0 ('Duel with the Devil') 64-bit 2018-06-12 22:46:35 / UTC 2018-05-27T01:16:13Z
    FromStats_BitRate                        : 3280867
    FromStats_Duration                       : 01:55:19.663000000
    FromStats_FrameCount                     : 165906
    FromStats_StreamSize                     : 2837811895

    Audio #1
    ID                                       : 2
    Format                                   : DTS
    Format/Info                              : Digital Theater Systems
    Mode                                     : 16
    Format settings, Endianness              : Big
    Codec ID                                 : A_DTS
    Duration                                 : 1 h 55 min
    Bit rate mode                            : Constant
    Bit rate                                 : 1 509 kb/s
    Channel(s)                               : 6 channels
    Channel positions                        : Front: L C R, Side: L R, LFE
    Sampling rate                            : 48.0 kHz
    Frame rate                               : 93.750 FPS (512 SPF)
    Bit depth                                : 24 bits
    Compression mode                         : Lossy
    Stream size                              : 1.22 GiB (24%)
    Language                                 : Spanish
    Default                                  : Yes
    Forced                                   : No
    Statistics Tags Issue                    : mkvmerge v15.0.0 ('Duel with the Devil') 64-bit 2018-06-12 22:46:35 / mkvmerge v15.0.0 ('Duel with the Devil') 64-bit 2018-06-12 22:46:35 / UTC 2018-05-27T01:16:13Z
    FromStats_BitRate                        : 1508999
    FromStats_Duration                       : 01:55:19.094000000
    FromStats_FrameCount                     : 648665
    FromStats_StreamSize                     : 1305113980

    Audio #2
    ID                                       : 3
    Format                                   : DTS
    Format/Info                              : Digital Theater Systems
    Mode                                     : 16
    Format settings, Endianness              : Big
    Codec ID                                 : A_DTS
    Duration                                 : 1 h 55 min
    Bit rate mode                            : Constant
    Bit rate                                 : 1 509 kb/s
    Channel(s)                               : 6 channels
    Channel positions                        : Front: L C R, Side: L R, LFE
    Sampling rate                            : 48.0 kHz
    Frame rate                               : 93.750 FPS (512 SPF)
    Bit depth                                : 24 bits
    Compression mode                         : Lossy
    Stream size                              : 1.22 GiB (24%)
    Language                                 : English
    Default                                  : No
    Forced                                   : No
    Statistics Tags Issue                    : mkvmerge v15.0.0 ('Duel with the Devil') 64-bit 2018-06-12 22:46:35 / mkvmerge v15.0.0 ('Duel with the Devil') 64-bit 2018-06-12 22:46:35 / UTC 2018-05-27T01:16:13Z
    FromStats_BitRate                        : 1508999
    FromStats_Duration                       : 01:55:19.702000000
    FromStats_FrameCount                     : 648722
    FromStats_StreamSize                     : 1305228664

    Text #1
    ID                                       : 4
    Format                                   : PGS
    Muxing mode                              : zlib
    Codec ID                                 : S_HDMV/PGS
    Codec ID/Info                            : Picture based subtitle format used on BDs/HD-DVDs
    Language                                 : English
    Default                                  : No
    Forced                                   : No
    Statistics Tags Issue                    : mkvmerge v15.0.0 ('Duel with the Devil') 64-bit 2018-06-12 22:46:35 / mkvmerge v15.0.0 ('Duel with the Devil') 64-bit 2018-06-12 22:46:35 / UTC 2018-05-27T01:16:13Z
    FromStats_BitRate                        : 48644
    FromStats_Duration                       : 01:50:17.736000000
    FromStats_FrameCount                     : 3810
    FromStats_StreamSize                     : 40239476

    Text #2
    ID                                       : 5
    Format                                   : PGS
    Muxing mode                              : zlib
    Codec ID                                 : S_HDMV/PGS
    Codec ID/Info                            : Picture based subtitle format used on BDs/HD-DVDs
    Language                                 : Spanish
    Default                                  : No
    Forced                                   : No
    Statistics Tags Issue                    : mkvmerge v15.0.0 ('Duel with the Devil') 64-bit 2018-06-12 22:46:35 / mkvmerge v15.0.0 ('Duel with the Devil') 64-bit 2018-06-12 22:46:35 / UTC 2018-05-27T01:16:13Z
    FromStats_BitRate                        : 50573
    FromStats_Duration                       : 01:49:55.923000000
    FromStats_FrameCount                     : 3756
    FromStats_StreamSize                     : 41697637

    Menu
    00:00:00.000                             : :Chapter 1
    00:04:20.761                             : :Chapter 2
    00:10:09.150                             : :Chapter 3
    00:16:15.016                             : :Chapter 4
    00:25:06.964                             : :Chapter 5
    00:31:54.830                             : :Chapter 6
    00:38:49.369                             : :Chapter 7
    00:45:43.282                             : :Chapter 8
    00:52:27.186                             : :Chapter 9
    01:00:31.128                             : :Chapter 10
    01:07:37.929                             : :Chapter 11
    01:12:04.028                             : :Chapter 12
    01:18:35.711                             : :Chapter 13
    01:24:36.697                             : :Chapter 14
    01:31:40.161                             : :Chapter 15
    01:37:26.257                             : :Chapter 16
    01:43:34.917                             : :Chapter 17
    01:47:11.675                             : :Chapter 18

  • Peso: 5.10 GiB

Sinopsis

Biopic del creador de McDonald’s. En los años 50, un vendedor de Illinois llamado Ray Kroc conoció a los hermanos Richard y Maurice McDonald que llevaban una hamburguesería al sur de California. Impresionado por la velocidad del sistema de cocina de su hamburguesería de San Bernardino, Kroc visualizó el potencial de la franquicia y hábilmente se fue posicionando para arrebatárselo a los hermanos y crear el hoy imperio de un billón de dólares. Así nació McDonald’s.

Ficha técnica

Video trailer de la película

Enlaces de descarga

Rip de Bluray

Descargar Hambre de poder (2016) Full 1080p Latino




Aportes de DPeliculasHDmega la pass es:dpeliculashdmega.org Aportes de CinemaniaHD la pass es:cinemaniahdd.com
Guardado en : Drama , Historia

Películas relacionadas

  • Unbroken Path to Redemption (2018) 1080p Latino

    2018
    Unbroken Path to Redemption (2018) 1080p Latino

    0.0 1h 38m 2018

    Zamperini regresa a California donde se casó a regañadientes con Cynthia Applewhite mientras luchaba...

    Director: Harold Cronk

    Género: Drama

    Actores: Will Graham

  • Matar o morir (2018) 1080p Subtitulado

    2018
    Matar o morir (2018) 1080p Subtitulado

    5.0 1h 41m 2018

    Descargar Matar o morir [Peppermint] (2018) 1080p Subtitulado, Mega, Google Drive. LRiley North (Jennifer...

    Director: Pierre Morel

    Género: Acción

    Actores: YaYa Gosselin

  • Crimenes Oscuros (2016) 1080p Latino

    2018
    Crimenes Oscuros (2016) 1080p Latino

    0.0 1h 32m 2018

    Descargar Crimenes Oscuros (2016) 1080p Latino, Mega Google Drive. Un detective de homicidios encuentra...

    Director: Alexandros Avranas

    Género: Crimen

    Actores: Zygmunt Jozefczak

  • Vikingos Temporada 5 (2017) WEB-DL Amazon 1080p Latino

    2017
    Vikingos Temporada 5 (2017) WEB-DL Amazon 1080p Latino

    3.0 0h 44m 2017

    Sigue las aventuras de Ragnar Lothbrok, el héroe más grande de su época. La serie narra las sagas...

    Director: Michael Hirst

    Género: Action & Adventure

    Actores: Moe Dunford

Comentarios 0