×

¿Problemas para descargar con Mozilla, EDGE? Deshabilita la opción "Abrir vinculos en una pestaña nueva" tal como lo muestra ésta imagen.

Halo Nightfall (2015) REMUX 1080p Latino – CMHDD

940 vistas

Información de Halo Nightfall (2015) REMUX 1080p Latino – CMHDD

Datos de la película

  • Calidad: Full 1080p
  • Audio: Español Latino AC3 5.1 BLURAY - Ingles DTS 5.1 BLURAY
  • Subtitulos: Español Latino PGS
  • Resolución: 1920x1080p
  • Formato: MKV
  • Codec: H.264
  • Encoder: Dracarys
  • Mediainfo: Clic para Mostrar Datos Ver
  • Format                      : Matroska
    Format version              : Version 4
    File size                   : 23.6 GiB
    Duration                    : 1 h 38 min
    Overall bit rate mode       : Variable
    Overall bit rate            : 34.4 Mb/s
    Movie name                  : Halo: Nightfall (2015) REMUX 1080p Latino - CMHDD
    Encoded date                : UTC 2022-02-13 22:39:46
    Writing application         : mkvmerge v17.0.0 ('Be Ur Friend') 64-bit
    Writing library             : libebml v1.3.5 + libmatroska v1.4.8

    Video
    ID                          : 1
    Format                      : AVC
    Format/Info                 : Advanced Video Codec
    Format profile              : High@L4.1
    Format settings             : CABAC / 4 Ref Frames
    Format settings, CABAC      : Yes
    Format settings, Reference  : 4 frames
    Codec ID                    : V_MPEG4/ISO/AVC
    Duration                    : 1 h 38 min
    Bit rate mode               : Variable
    Bit rate                    : 29.3 Mb/s
    Maximum bit rate            : 34.5 Mb/s
    Width                       : 1 920 pixels
    Height                      : 1 080 pixels
    Display aspect ratio        : 16:9
    Frame rate mode             : Constant
    Frame rate                  : 23.976 (24000/1001) FPS
    Color space                 : YUV
    Chroma subsampling          : 4:2:0
    Bit depth                   : 8 bits
    Scan type                   : Progressive
    Bits/(Pixel*Frame)          : 0.590
    Stream size                 : 20.1 GiB (85%)
    Default                     : Yes
    Forced                      : No

    Audio #1
    ID                          : 2
    Format                      : DTS XLL
    Format/Info                 : Digital Theater Systems
    Commercial name             : DTS-HD Master Audio
    Codec ID                    : A_DTS
    Duration                    : 1 h 38 min
    Bit rate mode               : Variable
    Bit rate                    : 4 654 kb/s
    Channel(s)                  : 8 channels
    Channel layout              : C L R LFE Lb Rb Lss Rss
    Sampling rate               : 48.0 kHz
    Frame rate                  : 93.750 FPS (512 SPF)
    Bit depth                   : 24 bits
    Compression mode            : Lossless
    Stream size                 : 3.19 GiB (14%)
    Language                    : English
    Default                     : No
    Forced                      : No

    Audio #2
    ID                          : 3
    Format                      : AC-3
    Format/Info                 : Audio Coding 3
    Commercial name             : Dolby Digital
    Codec ID                    : A_AC3
    Duration                    : 1 h 38 min
    Bit rate mode               : Constant
    Bit rate                    : 448 kb/s
    Channel(s)                  : 6 channels
    Channel layout              : L R C LFE Ls Rs
    Sampling rate               : 48.0 kHz
    Frame rate                  : 31.250 FPS (1536 SPF)
    Compression mode            : Lossy
    Stream size                 : 315 MiB (1%)
    Language                    : Spanish
    Service kind                : Complete Main
    Default                     : Yes
    Forced                      : No

    Text
    ID                          : 4
    Format                      : PGS
    Muxing mode                 : zlib
    Codec ID                    : S_HDMV/PGS
    Codec ID/Info               : Picture based subtitle format used on BDs/HD-DVDs
    Duration                    : 1 h 34 min
    Bit rate                    : 28.0 kb/s
    Count of elements           : 1828
    Stream size                 : 18.9 MiB (0%)
    Language                    : Spanish
    Default                     : No
    Forced                      : No

    Menu
    00:00:00.000                : en:Chapter 1
    00:02:20.974                : en:Chapter 2
    00:07:25.611                : en:Chapter 3
    00:10:21.037                : en:Chapter 4
    00:14:40.921                : en:Chapter 5
    00:20:59.216                : en:Chapter 6
    00:24:42.981                : en:Chapter 7
    00:29:18.715                : en:Chapter 8
    00:35:11.192                : en:Chapter 9
    00:42:13.364                : en:Chapter 10
    00:48:36.955                : en:Chapter 11
    00:53:57.859                : en:Chapter 12
    00:58:08.109                : en:Chapter 13
    01:03:04.822                : en:Chapter 14
    01:08:15.716                : en:Chapter 15
    01:11:53.100                : en:Chapter 16
    01:17:44.868                : en:Chapter 17
    01:25:27.205                : en:Chapter 18
    01:31:23.895                : en:Chapter 19
    01:35:20.297                : en:Chapter 20

  • Peso: 23.6 GiB

Sinopsis

Ubicado entre los eventos de Halo 4 y Halo 5: Guardianes … Halo: Nightfall cuenta la dramática historia del legendario cazador de hombres y el oficial de inteligencia naval Jameson Locke y su equipo, ya que se encuentran atrapados en un horrible ataque biológico mientras investigan la actividad terrorista en la colonia lejana mundo de sedra. A medida que desenredan un complot que los atrae a un antiguo artefacto infernal, se verán obligados a luchar por su supervivencia, cuestionarse todo y, finalmente, elegir entre su lealtad y sus vidas.

Ficha técnica

Video trailer de la película

Enlaces de descarga

Rip de Bluray

Descargar Halo Nightfall (2015) REMUX 1080p Latino – CMHDD


Aportes de DPeliculasHDmega la pass es:dpeliculashdmega.org Aportes de CinemaniaHD la pass es:cinemaniahdd.com
Guardado en : Ciencia ficción

Películas relacionadas

  • M3GAN (2023) AMZN WEB-DL 4K UHD HDR Latino

    M3GAN (2023) AMZN WEB-DL 4K UHD HDR Latino

    2022
    M3GAN (2023) AMZN WEB-DL 4K UHD HDR Latino

    1h 42m 2022

    Descargar M3GAN (2023) AMZN WEB-DL 4K UHD HDR Latino. Cuando Gemma se convierte en la cuidadora de su...

    Director: Stephen W. Moore

    Género: 4K HDR

    Actores: Violet McGraw

  • M3GAN (2022) MA WEB-DL 1080p Latino

    M3GAN (2022) MA WEB-DL 1080p Latino

    2022
    M3GAN (2022) MA WEB-DL 1080p Latino

    1h 42m 2022

    Descargar M3GAN (2022) MA WEB-DL 1080p Latino. Cuando Gemma se convierte en la cuidadora de su sobrina...

    Director: Stephen W. Moore

    Género: Ciencia ficción

    Actores: Violet McGraw

  • Resident Evil (2002) REMUX 4K HDR Latino – CMHDD

    Resident Evil (2002) REMUX 4K HDR Latino – CMHDD

    2002
    Resident Evil (2002) REMUX 4K HDR Latino – CMHDD

    1h 36m 2002

    En un centro clandestino de investigación genética -con fines militares- de una poderosa multinacional...

    Director: Simon Emanuel

    Género: Acción

    Actores: Torsten Jerabek

descargar Halo Nightfall (2015) REMUX 1080p Latino – CMHDD Full 1080p 1080p gratis, Halo Nightfall (2015) REMUX 1080p Latino – CMHDD Full 1080p mega 1 link, Halo Nightfall (2015) REMUX 1080p Latino – CMHDD Full 1080p pelicula completa, descargar Halo Nightfall (2015) REMUX 1080p Latino – CMHDD Full 1080p gratis en mega.

Halo Nightfall (2015) REMUX 1080p Latino – CMHDD pelicula full hd, Halo Nightfall (2015) REMUX 1080p Latino – CMHDD mega latino, Halo Nightfall (2015) REMUX 1080p Latino – CMHDD 4k latino, Halo Nightfall (2015) REMUX 1080p Latino – CMHDD pelicula completa, Halo Nightfall (2015) REMUX 1080p Latino – CMHDD descargar gratis, descargar Halo Nightfall (2015) REMUX 1080p Latino – CMHDD pelicula latino, Halo Nightfall (2015) REMUX 1080p Latino – CMHDD 1 link mega, Halo Nightfall (2015) REMUX 1080p Latino – CMHDD 1 link google drive, Halo Nightfall (2015) REMUX 1080p Latino – CMHDD hd 1080p latino.
Comentarios 0