×

¿Problemas para descargar con Mozilla, EDGE? Deshabilita la opción "Abrir vinculos en una pestaña nueva" tal como lo muestra ésta imagen.

Halloween: La noche final (2022) HD 1080p Latino

47 vistas

Información de Halloween: La noche final (2022) HD 1080p Latino

Datos de la película

  • Calidad: 1080p
  • Audio: Español Latino AC3 5.1 BLURAY - Ingles AC3 5.1 BLURAY
  • Subtitulos: Español Latino SRT- FORZADOS SRT
  • Resolución: 1920x804p
  • Formato: MKV
  • Codec: H.264
  • Encoder: Melkor
  • Mediainfo: Clic para Mostrar Datos Ver
  • Halloween La Noche Final (2022) HD 1080p Latino.mkv
    Format                      : Matroska
    Format version              : Version 4
    File size                   : 3.53 GiB
    Duration                    : 1 h 50 min
    Overall bit rate            : 4 554 kb/s
    Movie name                  : Halloween Ends (2022) CinemaniaHDD.Net
    Encoded date                : UTC 2022-12-21 21:50:26
    Writing application         : mkvmerge v56.1.0 ('My Friend') 64-bit
    Writing library             : libebml v1.4.2 + libmatroska v1.6.4
    Attachments                 : CINEMANIAHD.png

    Video
    ID                          : 1
    Format                      : AVC
    Format/Info                 : Advanced Video Codec
    Format profile              : High@L4.1
    Format settings             : CABAC / 5 Ref Frames
    Format settings, CABAC      : Yes
    Format settings, Reference  : 5 frames
    Codec ID                    : V_MPEG4/ISO/AVC
    Duration                    : 1 h 50 min
    Bit rate                    : 3 500 kb/s
    Width                       : 1 920 pixels
    Height                      : 804 pixels
    Display aspect ratio        : 2.40:1
    Frame rate mode             : Constant
    Frame rate                  : 23.976 (24000/1001) FPS
    Color space                 : YUV
    Chroma subsampling          : 4:2:0
    Bit depth                   : 8 bits
    Scan type                   : Progressive
    Bits/(Pixel*Frame)          : 0.095
    Stream size                 : 2.68 GiB (76%)
    Title                       : HD1080p [CinemaniaHDD]
    Writing library             : x264 core 163 r3059 b684ebe0
    Encoding settings           : cabac=1 / ref=5 / deblock=1:-1:-1 / analyse=0x3:0x133 / me=umh / subme=9 / psy=1 / psy_rd=1.00:0.15 / mixed_ref=1 / me_range=16 / chroma_me=1 / trellis=2 / 8x8dct=1 / cqm=0 / deadzone=21,11 / fast_pskip=1 / chroma_qp_offset=-3 / threads=24 / lookahead_threads=2 / sliced_threads=0 / nr=0 / decimate=1 / interlaced=0 / bluray_compat=0 / constrained_intra=0 / bframes=3 / b_pyramid=2 / b_adapt=2 / b_bias=0 / direct=3 / weightb=1 / open_gop=0 / weightp=2 / keyint=240 / keyint_min=24 / scenecut=40 / intra_refresh=0 / rc_lookahead=60 / rc=abr / mbtree=1 / bitrate=3500 / ratetol=1.0 / qcomp=0.60 / qpmin=0 / qpmax=69 / qpstep=4 / vbv_maxrate=62500 / vbv_bufsize=78125 / nal_hrd=none / filler=0 / ip_ratio=1.40 / aq=1:1.00
    Default                     : Yes
    Forced                      : Yes
    Color range                 : Limited
    Color primaries             : BT.709
    Transfer characteristics    : BT.709
    Matrix coefficients         : BT.709

    Audio #1
    ID                          : 2
    Format                      : AC-3
    Format/Info                 : Audio Coding 3
    Commercial name             : Dolby Digital
    Codec ID                    : A_AC3
    Duration                    : 1 h 50 min
    Bit rate mode               : Constant
    Bit rate                    : 640 kb/s
    Channel(s)                  : 6 channels
    Channel layout              : L R C LFE Ls Rs
    Sampling rate               : 48.0 kHz
    Frame rate                  : 31.250 FPS (1536 SPF)
    Compression mode            : Lossy
    Delay relative to video     : -5 ms
    Stream size                 : 507 MiB (14%)
    Title                       : Español Latino [CinemaniaHDD]
    Language                    : Spanish
    Service kind                : Complete Main
    Default                     : Yes
    Forced                      : Yes

    Audio #2
    ID                          : 3
    Format                      : AC-3
    Format/Info                 : Audio Coding 3
    Commercial name             : Dolby Digital
    Codec ID                    : A_AC3
    Duration                    : 1 h 50 min
    Bit rate mode               : Constant
    Bit rate                    : 448 kb/s
    Channel(s)                  : 6 channels
    Channel layout              : L R C LFE Ls Rs
    Sampling rate               : 48.0 kHz
    Frame rate                  : 31.250 FPS (1536 SPF)
    Compression mode            : Lossy
    Delay relative to video     : -5 ms
    Stream size                 : 355 MiB (10%)
    Title                       : Ingles [CinemaniaHDD]
    Language                    : English
    Service kind                : Complete Main
    Default                     : No
    Forced                      : No

    Text #1
    ID                          : 4
    Format                      : UTF-8
    Codec ID                    : S_TEXT/UTF8
    Codec ID/Info               : UTF-8 Plain Text
    Duration                    : 1 h 44 min
    Bit rate                    : 0 b/s
    Count of elements           : 31
    Stream size                 : 736 Bytes (0%)
    Title                       : Forzados-SRT [CinemaniaHDD]
    Language                    : Spanish
    Default                     : Yes
    Forced                      : Yes

    Text #2
    ID                          : 5
    Format                      : UTF-8
    Codec ID                    : S_TEXT/UTF8
    Codec ID/Info               : UTF-8 Plain Text
    Duration                    : 1 h 50 min
    Bit rate                    : 45 b/s
    Count of elements           : 1220
    Stream size                 : 36.5 KiB (0%)
    Title                       : Español-SRT [CinemaniaHDD]
    Language                    : Spanish
    Default                     : No
    Forced                      : No

    Menu
    00:00:00.000                : Chapter 01
    00:04:04.953                : Chapter 02
    00:11:20.179                : Chapter 03
    00:15:36.143                : Chapter 04
    00:21:13.355                : Chapter 05
    00:25:49.714                : Chapter 06
    00:30:49.848                : Chapter 07
    00:36:40.740                : Chapter 08
    00:41:29.028                : Chapter 09
    00:46:46.762                : Chapter 10
    00:53:05.390                : Chapter 11
    00:58:57.492                : Chapter 12
    01:06:03.042                : Chapter 13
    01:10:11.332                : Chapter 14
    01:15:08.587                : Chapter 15
    01:21:41.313                : Chapter 16
    01:26:31.019                : Chapter 17
    01:32:12.026                : Chapter 18
    01:39:01.936                : Chapter 19
    01:45:35.871                : Chapter 20

  • Peso: 3.53 GiB

Sinopsis

Descargar Halloween: La noche final (2022) HD 1080p Latino. Cuatro años después de los eventos de Halloween en 2018, Laurie ha decidido liberarse del miedo y la ira y abrazar la vida. Pero cuando un joven es acusado de matar a un niño que estaba cuidando, se enciende una cascada de violencia y terror que obligará a Laurie a enfrentarse finalmente al mal que no puede controlar, de una vez por todas.

Ficha técnica

Video trailer de la película

Enlaces de descarga

Rip de Bluray

Descargar Halloween: La noche final (2022) HD 1080p Latino




Aportes de DPeliculasHDmega la pass es:dpeliculashdmega.org Aportes de CinemaniaHD la pass es:cinemaniahdd.com
Guardado en : HD 1080p , Suspenso , Terror

Películas relacionadas

  • Juego de espías (2001) 1080p Latino

    Juego de espías (2001) 1080p Latino

    2001
    Juego de espías (2001) 1080p Latino

    2h 6m 2001

    Descargar Juego de espías (2001) 1080p Latino. Corre el año 1991, y al veterano agente de la CIA Nathan...

    Director: Tony Scott

    Género: Acción

    Actores: Zsolt Zágoni

  • Juego de espías (2001) Full HD 1080p Latino

    Juego de espías (2001) Full HD 1080p Latino

    2001
    Juego de espías (2001) Full HD 1080p Latino

    2h 6m 2001

    Descargar Juego de espías (2001) Full HD 1080p Latino. Corre el año 1991, y al veterano agente de la...

    Director: Tony Scott

    Género: Acción

    Actores: Zsolt Zágoni

  • Juego de espías (2001) REMUX 1080p Latino

    Juego de espías (2001) REMUX 1080p Latino

    2001
    Juego de espías (2001) REMUX 1080p Latino

    1h 55m 2001

    Descargar Juego de espías (2001) REMUX 1080p Latino. El día de su jubilación, el veterano agente de...

    Director: Tony Scott

    Género: Acción

    Actores: Zsolt Zágoni

descargar Halloween: La noche final (2022) HD 1080p Latino 1080p 1080p gratis, Halloween: La noche final (2022) HD 1080p Latino 1080p mega 1 link, Halloween: La noche final (2022) HD 1080p Latino 1080p pelicula completa, descargar Halloween: La noche final (2022) HD 1080p Latino 1080p gratis en mega.

Halloween: La noche final (2022) HD 1080p Latino pelicula full hd, Halloween: La noche final (2022) HD 1080p Latino mega latino, Halloween: La noche final (2022) HD 1080p Latino 4k latino, Halloween: La noche final (2022) HD 1080p Latino pelicula completa, Halloween: La noche final (2022) HD 1080p Latino descargar gratis, descargar Halloween: La noche final (2022) HD 1080p Latino pelicula latino, Halloween: La noche final (2022) HD 1080p Latino 1 link mega, Halloween: La noche final (2022) HD 1080p Latino 1 link google drive, Halloween: La noche final (2022) HD 1080p Latino hd 1080p latino.
Comentarios 0