×

¿Problemas para descargar con Mozilla, EDGE? Deshabilita la opción "Abrir vinculos en una pestaña nueva" tal como lo muestra ésta imagen.

Halloween Kills: La Noche Aún No Termina (2021) EXTENDED REMUX 1080p Latino

482 vistas

Información de Halloween Kills: La Noche Aún No Termina (2021) EXTENDED REMUX 1080p Latino

Datos de la película

  • Calidad: Full 1080p
  • Audio: Se especifica abajo de la Sinopsis
  • Subtitulos: Español Latino PGS - Ingles PGS
  • Resolución: 1920x1080p
  • Formato: MKV
  • Codec: H.264
  • Encoder: Melkor
  • Mediainfo: Clic para Mostrar Datos Ver
  • Halloween Kills (2021) EXTENDED REMUX 1080p Latino.mkv
    Format                      : Matroska
    Format version              : Version 4
    File size                   : 23.4 GiB
    Duration                    : 1 h 49 min
    Overall bit rate mode       : Variable
    Overall bit rate            : 30.7 Mb/s
    Movie name                  : Halloween Kills (2021) CinemaniaHDD.Net
    Encoded date                : UTC 2022-01-11 00:45:40
    Writing application         : mkvmerge v56.1.0 ('My Friend') 64-bit
    Writing library             : libebml v1.4.2 + libmatroska v1.6.4
    Attachments                 : CINEMANIAHD.png

    Video
    ID                          : 1
    Format                      : AVC
    Format/Info                 : Advanced Video Codec
    Format profile              : High@L4.1
    Format settings             : CABAC / 2 Ref Frames
    Format settings, CABAC      : Yes
    Format settings, Reference  : 2 frames
    Format settings, GOP        : M=1, N=10
    Codec ID                    : V_MPEG4/ISO/AVC
    Duration                    : 1 h 49 min
    Bit rate mode               : Variable
    Bit rate                    : 25.8 Mb/s
    Width                       : 1 920 pixels
    Height                      : 1 080 pixels
    Display aspect ratio        : 16:9
    Frame rate mode             : Constant
    Frame rate                  : 23.976 (24000/1001) FPS
    Color space                 : YUV
    Chroma subsampling          : 4:2:0
    Bit depth                   : 8 bits
    Scan type                   : Progressive
    Bits/(Pixel*Frame)          : 0.519
    Stream size                 : 19.7 GiB (84%)
    Title                       : REMUX HD1080p [CinemaniaHDD]
    Default                     : Yes
    Forced                      : Yes

    Audio #1
    ID                          : 2
    Format                      : E-AC-3
    Format/Info                 : Enhanced AC-3
    Commercial name             : Dolby Digital Plus
    Format profile              : Blu-ray Disc
    Codec ID                    : A_EAC3
    Duration                    : 1 h 49 min
    Bit rate mode               : Constant
    Bit rate                    : 768 kb/s
    Channel(s)                  : 8 channels
    Channel layout              : L R C LFE Ls Rs Lb Rb
    Sampling rate               : 48.0 kHz
    Frame rate                  : 31.250 FPS (1536 SPF)
    Compression mode            : Lossy
    Stream size                 : 600 MiB (3%)
    Title                       : Español Latino DDP [CinemaniaHDD]
    Language                    : Spanish
    Service kind                : Complete Main
    Default                     : Yes
    Forced                      : Yes

    Audio #2
    ID                          : 3
    Format                      : MLP FBA 16-ch
    Format/Info                 : Meridian Lossless Packing FBA with 16-channel presentation
    Commercial name             : Dolby TrueHD with Dolby Atmos
    Codec ID                    : A_TRUEHD
    Duration                    : 1 h 49 min
    Bit rate mode               : Variable
    Bit rate                    : 2 932 kb/s
    Maximum bit rate            : 3 744 kb/s
    Channel(s)                  : 8 channels
    Channel layout              : L R C LFE Ls Rs Lb Rb
    Sampling rate               : 48.0 kHz
    Frame rate                  : 1 200.000 FPS (40 SPF)
    Compression mode            : Lossless
    Stream size                 : 2.24 GiB (10%)
    Title                       : Ingles THD[CinemaniaHDD]
    Language                    : English
    Default                     : No
    Forced                      : No
    Number of dynamic objects   : 11
    Bed channel count           : 1 channel
    Bed channel configuration   : LFE

    Audio #3
    ID                          : 4
    Format                      : AC-3
    Format/Info                 : Audio Coding 3
    Commercial name             : Dolby Digital
    Codec ID                    : A_AC3
    Duration                    : 1 h 49 min
    Bit rate mode               : Constant
    Bit rate                    : 448 kb/s
    Channel(s)                  : 6 channels
    Channel layout              : L R C LFE Ls Rs
    Sampling rate               : 48.0 kHz
    Frame rate                  : 31.250 FPS (1536 SPF)
    Compression mode            : Lossy
    Stream size                 : 350 MiB (1%)
    Title                       : Español Latino AC3 [CinemaniaHDD]
    Language                    : Spanish
    Service kind                : Complete Main
    Default                     : No
    Forced                      : No

    Audio #4
    ID                          : 5
    Format                      : AC-3
    Format/Info                 : Audio Coding 3
    Commercial name             : Dolby Digital
    Codec ID                    : A_AC3
    Duration                    : 1 h 49 min
    Bit rate mode               : Constant
    Bit rate                    : 640 kb/s
    Channel(s)                  : 6 channels
    Channel layout              : L R C LFE Ls Rs
    Sampling rate               : 48.0 kHz
    Frame rate                  : 31.250 FPS (1536 SPF)
    Compression mode            : Lossy
    Stream size                 : 500 MiB (2%)
    Title                       : Ingles AC3 [CinemaniaHDD]
    Language                    : English
    Service kind                : Complete Main
    Default                     : No
    Forced                      : No

    Text #1
    ID                          : 6
    Format                      : PGS
    Muxing mode                 : zlib
    Codec ID                    : S_HDMV/PGS
    Codec ID/Info               : Picture based subtitle format used on BDs/HD-DVDs
    Duration                    : 1 h 45 min
    Bit rate                    : 238 b/s
    Count of elements           : 28
    Stream size                 : 185 KiB (0%)
    Title                       : Forzados-PGS [CinemaniaHDD]
    Language                    : Spanish
    Default                     : No
    Forced                      : No

    Text #2
    ID                          : 7
    Format                      : PGS
    Muxing mode                 : zlib
    Codec ID                    : S_HDMV/PGS
    Codec ID/Info               : Picture based subtitle format used on BDs/HD-DVDs
    Duration                    : 1 h 48 min
    Bit rate                    : 31.5 kb/s
    Count of elements           : 2673
    Stream size                 : 24.3 MiB (0%)
    Title                       : Español-PGS [CinemaniaHDD]
    Language                    : Spanish
    Default                     : No
    Forced                      : No

    Text #3
    ID                          : 8
    Format                      : PGS
    Muxing mode                 : zlib
    Codec ID                    : S_HDMV/PGS
    Codec ID/Info               : Picture based subtitle format used on BDs/HD-DVDs
    Duration                    : 1 h 45 min
    Bit rate                    : 40.0 kb/s
    Count of elements           : 2980
    Stream size                 : 30.1 MiB (0%)
    Title                       : Ingles-PGS [CinemaniaHDD]
    Language                    : English
    Default                     : No
    Forced                      : No

    Text #4
    ID                          : 9
    Format                      : UTF-8
    Codec ID                    : S_TEXT/UTF8
    Codec ID/Info               : UTF-8 Plain Text
    Duration                    : 1 h 40 min
    Bit rate                    : 0 b/s
    Count of elements           : 6
    Stream size                 : 206 Bytes (0%)
    Title                       : Forzados-SRT [CinemaniaHDD]
    Language                    : Spanish
    Default                     : Yes
    Forced                      : Yes

    Text #5
    ID                          : 10
    Format                      : UTF-8
    Codec ID                    : S_TEXT/UTF8
    Codec ID/Info               : UTF-8 Plain Text
    Duration                    : 1 h 42 min
    Bit rate                    : 49 b/s
    Count of elements           : 1332
    Stream size                 : 37.1 KiB (0%)
    Title                       : Español-SRT [CinemaniaHDD]
    Language                    : Spanish
    Default                     : No
    Forced                      : No

    Menu
    00:00:00.000                : Chapter 01
    00:08:17.956                : Chapter 02
    00:15:10.743                : Chapter 03
    00:19:55.277                : Chapter 04
    00:26:17.576                : Chapter 05
    00:32:32.117                : Chapter 06
    00:38:01.613                : Chapter 07
    00:42:30.214                : Chapter 08
    00:46:52.935                : Chapter 09
    00:49:09.113                : Chapter 10
    00:55:07.846                : Chapter 11
    01:01:33.231                : Chapter 12
    01:06:04.586                : Chapter 13
    01:11:29.494                : Chapter 14
    01:16:19.408                : Chapter 15
    01:22:15.722                : Chapter 16
    01:26:26.014                : Chapter 17
    01:30:06.985                : Chapter 18
    01:35:24.594                : Chapter 19
    01:44:07.658                : Chapter 20

  • Peso: 23.4 GiB

Sinopsis

Descargar Halloween Kills: La Noche Aún No Termina (2021) EXTENDED REMUX 1080p Latino. Minutos después de que Laurie Strode, su hija Karen y su nieta Allyson dejaran al despiadado asesino Michael Myers encerrado y ardiendo en el sótano, Laurie es llevada de urgencia al hospital con heridas que ponen en peligro su vida, creyendo haber acabado por fin con quien ha convertido su vida en un infierno. Pero cuando Michael consigue liberarse de la trampa de Laurie, reinicia su ritual de baño de sangre. Mientras Laurie lucha contra su dolor y se prepara para defenderse de él, inspira a toda la población de Haddonfield a rebelarse contra su imparable monstruo. Las Strode se unen a un grupo de supervivientes de la primera masacre de Michael quienes deciden hacer justicia por su propia mano y forman una patrulla ciudadana con el objetivo de cazar a Michael de una vez por todas.

Español Latino EAC3 7.1 & AC3 5.1 BD – Ingles TrueHD 7.1 & AC3 5.1 BD

Ficha técnica

Video trailer de la película

Enlaces de descarga

Rip de Bluray

Descargar Halloween Kills: La Noche Aún No Termina (2021) EXTENDED REMUX 1080p Latino




Aportes de DPeliculasHDmega la pass es:dpeliculashdmega.org Aportes de CinemaniaHD la pass es:cinemaniahdd.com
Guardado en : Remux , Suspenso , Terror

Películas relacionadas

descargar Halloween Kills: La Noche Aún No Termina (2021) EXTENDED REMUX 1080p Latino Full 1080p 1080p gratis, Halloween Kills: La Noche Aún No Termina (2021) EXTENDED REMUX 1080p Latino Full 1080p mega 1 link, Halloween Kills: La Noche Aún No Termina (2021) EXTENDED REMUX 1080p Latino Full 1080p pelicula completa, descargar Halloween Kills: La Noche Aún No Termina (2021) EXTENDED REMUX 1080p Latino Full 1080p gratis en mega.

Halloween Kills: La Noche Aún No Termina (2021) EXTENDED REMUX 1080p Latino pelicula full hd, Halloween Kills: La Noche Aún No Termina (2021) EXTENDED REMUX 1080p Latino mega latino, Halloween Kills: La Noche Aún No Termina (2021) EXTENDED REMUX 1080p Latino 4k latino, Halloween Kills: La Noche Aún No Termina (2021) EXTENDED REMUX 1080p Latino pelicula completa, Halloween Kills: La Noche Aún No Termina (2021) EXTENDED REMUX 1080p Latino descargar gratis, descargar Halloween Kills: La Noche Aún No Termina (2021) EXTENDED REMUX 1080p Latino pelicula latino, Halloween Kills: La Noche Aún No Termina (2021) EXTENDED REMUX 1080p Latino 1 link mega, Halloween Kills: La Noche Aún No Termina (2021) EXTENDED REMUX 1080p Latino 1 link google drive, Halloween Kills: La Noche Aún No Termina (2021) EXTENDED REMUX 1080p Latino hd 1080p latino.
Comentarios 1
  • ocpgaiden - 11 enero, 2022

    Gracias y saludos