×

¿Problemas para descargar con Mozilla, EDGE? Deshabilita la opción "Abrir vinculos en una pestaña nueva" tal como lo muestra ésta imagen.

Halloween Kills (2021) [EXTENDED] REMUX 4K HDR Latino – CMHDD

394 vistas

Información de Halloween Kills (2021) [EXTENDED] REMUX 4K HDR Latino – CMHDD

Datos de la película

  • Calidad: 4K HDR
  • Audio: Se especifica abajo de la Sinopsis
  • Subtitulos: Español Latino PGS
  • Resolución: 3840x2160p
  • Formato: MKV
  • Codec: H.264
  • Encoder: Dracarys
  • Mediainfo: Clic para Mostrar Datos Ver
  • Format                      : Matroska
    Format version              : Version 4
    File size                   : 51.5 GiB
    Duration                    : 1 h 49 min
    Overall bit rate mode       : Variable
    Overall bit rate            : 67.5 Mb/s
    Movie name                  : Halloween Kills (2021) REMUX 4K HDR Latino - CMHDD
    Encoded date                : UTC 2022-01-10 22:55:13
    Writing application         : mkvmerge v17.0.0 ('Be Ur Friend') 64-bit
    Writing library             : libebml v1.3.5 + libmatroska v1.4.8

    Video
    ID                          : 1
    Format                      : HEVC
    Format/Info                 : High Efficiency Video Coding
    Format profile              : Main 10@L5.1@High
    HDR format                  : SMPTE ST 2086, HDR10 compatible
    Codec ID                    : V_MPEGH/ISO/HEVC
    Duration                    : 1 h 49 min
    Bit rate                    : 63.3 Mb/s
    Width                       : 3 840 pixels
    Height                      : 2 160 pixels
    Display aspect ratio        : 16:9
    Frame rate mode             : Constant
    Frame rate                  : 23.976 (23976/1000) FPS
    Original frame rate         : 23.976 (24000/1001) FPS
    Color space                 : YUV
    Chroma subsampling          : 4:2:0 (Type 2)
    Bit depth                   : 10 bits
    Bits/(Pixel*Frame)          : 0.318
    Stream size                 : 48.2 GiB (94%)
    Default                     : Yes
    Forced                      : No
    Color range                 : Limited
    Color primaries             : BT.2020
    Transfer characteristics    : PQ
    Matrix coefficients         : BT.2020 non-constant
    Mastering display color pri : Display P3
    Mastering display luminance : min: 0.0010 cd/m2, max: 1000 cd/m2
    Maximum Content Light Level : 784 cd/m2
    Maximum Frame-Average Light : 27 cd/m2

    Audio #1
    ID                          : 2
    Format                      : MLP FBA 16-ch
    Format/Info                 : Meridian Lossless Packing FBA with 16-channel presentation
    Commercial name             : Dolby TrueHD with Dolby Atmos
    Codec ID                    : A_TRUEHD
    Duration                    : 1 h 49 min
    Bit rate mode               : Variable
    Bit rate                    : 2 932 kb/s
    Maximum bit rate            : 3 744 kb/s
    Channel(s)                  : 8 channels
    Channel layout              : L R C LFE Ls Rs Lb Rb
    Sampling rate               : 48.0 kHz
    Frame rate                  : 1 200.000 FPS (40 SPF)
    Compression mode            : Lossless
    Stream size                 : 2.23 GiB (4%)
    Language                    : English
    Default                     : No
    Forced                      : No
    Number of dynamic objects   : 11
    Bed channel count           : 1 channel
    Bed channel configuration   : LFE

    Audio #2
    ID                          : 3
    Format                      : AC-3
    Format/Info                 : Audio Coding 3
    Commercial name             : Dolby Digital
    Codec ID                    : A_AC3
    Duration                    : 1 h 49 min
    Bit rate mode               : Constant
    Bit rate                    : 448 kb/s
    Channel(s)                  : 6 channels
    Channel layout              : L R C LFE Ls Rs
    Sampling rate               : 48.0 kHz
    Frame rate                  : 31.250 FPS (1536 SPF)
    Compression mode            : Lossy
    Stream size                 : 350 MiB (1%)
    Language                    : English
    Service kind                : Complete Main
    Default                     : No
    Forced                      : No

    Audio #3
    ID                          : 4
    Format                      : E-AC-3
    Format/Info                 : Enhanced AC-3
    Commercial name             : Dolby Digital Plus
    Format profile              : Blu-ray Disc
    Codec ID                    : A_EAC3
    Duration                    : 1 h 49 min
    Bit rate mode               : Constant
    Bit rate                    : 768 kb/s
    Channel(s)                  : 6 channels
    Channel(s)_Original         : 8 channels
    ChannelLayout_Original      : L R C LFE Ls Rs Lrs Rrs
    Sampling rate               : 48.0 kHz
    Frame rate                  : 31.250 FPS (1536 SPF)
    Compression mode            : Lossy
    Stream size                 : 599 MiB (1%)
    Language                    : Spanish
    Service kind                : Complete Main
    Default                     : Yes
    Forced                      : No

    Text #1
    ID                          : 5
    Format                      : PGS
    Muxing mode                 : zlib
    Codec ID                    : S_HDMV/PGS
    Codec ID/Info               : Picture based subtitle format used on BDs/HD-DVDs
    Duration                    : 1 h 48 min
    Bit rate                    : 31.4 kb/s
    Count of elements           : 2672
    Stream size                 : 24.3 MiB (0%)
    Language                    : Spanish
    Default                     : No
    Forced                      : No

    Text #2
    ID                          : 6
    Format                      : PGS
    Muxing mode                 : zlib
    Codec ID                    : S_HDMV/PGS
    Codec ID/Info               : Picture based subtitle format used on BDs/HD-DVDs
    Duration                    : 1 h 45 min
    Bit rate                    : 238 b/s
    Count of elements           : 21
    Stream size                 : 185 KiB (0%)
    Language                    : Spanish
    Default                     : No
    Forced                      : No

    Menu
    00:00:00.000                : en:Chapter 1
    00:08:17.955                : en:Chapter 2
    00:15:10.743                : en:Chapter 3
    00:19:55.277                : en:Chapter 4
    00:26:17.575                : en:Chapter 5
    00:32:32.116                : en:Chapter 6
    00:38:01.612                : en:Chapter 7
    00:42:30.214                : en:Chapter 8
    00:46:52.935                : en:Chapter 9
    00:49:09.112                : en:Chapter 10
    00:55:07.846                : en:Chapter 11
    01:01:33.231                : en:Chapter 12
    01:06:04.585                : en:Chapter 13
    01:11:29.493                : en:Chapter 14
    01:16:19.408                : en:Chapter 15
    01:22:15.722                : en:Chapter 16
    01:26:26.014                : en:Chapter 17
    01:30:06.984                : en:Chapter 18
    01:35:24.593                : en:Chapter 19
    01:44:07.657                : en:Chapter 20

  • Peso: 51.5 GiB

Sinopsis

Minutos después de que Laurie Strode, su hija Karen y su nieta Allyson dejaran al despiadado asesino Michael Myers encerrado y ardiendo en el sótano, Laurie es llevada de urgencia al hospital con heridas que ponen en peligro su vida, creyendo haber acabado por fin con quien ha convertido su vida en un infierno. Pero cuando Michael consigue liberarse de la trampa de Laurie, reinicia su ritual de baño de sangre. Mientras Laurie lucha contra su dolor y se prepara para defenderse de él, inspira a toda la población de Haddonfield a rebelarse contra su imparable monstruo. Las Strode se unen a un grupo de supervivientes de la primera masacre de Michael quienes deciden hacer justicia por su propia mano y forman una patrulla ciudadana con el objetivo de cazar a Michael de una vez por todas.

 

Latino EAC3 7.1 + AC3 5.1 – Inglés TrueHD 7.1 

Ficha técnica

Video trailer de la película

Enlaces de descarga

Rip de Bluray

Descargar Halloween Kills (2021) [EXTENDED] REMUX 4K HDR Latino – CMHDD


Aportes de DPeliculasHDmega la pass es:dpeliculashdmega.org Aportes de CinemaniaHD la pass es:cinemaniahdd.com
Guardado en : Suspenso , Terror

Películas relacionadas

  • Wire Room (2022) HD 1080p Latino

    Wire Room (2022) HD 1080p Latino

    2022
    Wire Room (2022) HD 1080p Latino

    1h 37m 2022

    Descargar Wire Room (2022) HD 1080p Latino. Mientras está de servicio en la sala de cables, un agente...

    Director: Matt Eskandari

    Género: Acción

    Actores: Texas Battle

  • Wire Room (2022) PLACEBO Full HD 1080p Latino

    Wire Room (2022) PLACEBO Full HD 1080p Latino

    2022
    Wire Room (2022) PLACEBO Full HD 1080p Latino

    1h 37m 2022

    Descargar Wire Room (2022) PLACEBO Full HD 1080p Latino. Mientras está de servicio en la sala de cables,...

    Director: Matt Eskandari

    Género: Acción

    Actores: Texas Battle

  • Wire Room (2022) REMUX 1080p Latino

    Wire Room (2022) REMUX 1080p Latino

    2022
    Wire Room (2022) REMUX 1080p Latino

    1h 37m 2022

    Descargar Wire Room (2022) REMUX 1080p Latino. Mientras está de servicio en la sala de cables, un agente...

    Director: Matt Eskandari

    Género: Acción

    Actores: Texas Battle

  • Alarido (2022) HD 1080p Latino

    Alarido (2022) HD 1080p Latino

    2022
    Alarido (2022) HD 1080p Latino

    1h 29m 2022

    Descargar Alarido (2022) HD 1080p Latino. Una joven madre soltera es cautiva junto con sus dos hijos...

    Director: D.J. Caruso

    Género: HD 1080p

    Actores: Vincent Gallo

descargar Halloween Kills (2021) [EXTENDED] REMUX 4K HDR Latino – CMHDD 4K HDR 1080p gratis, Halloween Kills (2021) [EXTENDED] REMUX 4K HDR Latino – CMHDD 4K HDR mega 1 link, Halloween Kills (2021) [EXTENDED] REMUX 4K HDR Latino – CMHDD 4K HDR pelicula completa, descargar Halloween Kills (2021) [EXTENDED] REMUX 4K HDR Latino – CMHDD 4K HDR gratis en mega.

Halloween Kills (2021) [EXTENDED] REMUX 4K HDR Latino – CMHDD pelicula full hd, Halloween Kills (2021) [EXTENDED] REMUX 4K HDR Latino – CMHDD mega latino, Halloween Kills (2021) [EXTENDED] REMUX 4K HDR Latino – CMHDD 4k latino, Halloween Kills (2021) [EXTENDED] REMUX 4K HDR Latino – CMHDD pelicula completa, Halloween Kills (2021) [EXTENDED] REMUX 4K HDR Latino – CMHDD descargar gratis, descargar Halloween Kills (2021) [EXTENDED] REMUX 4K HDR Latino – CMHDD pelicula latino, Halloween Kills (2021) [EXTENDED] REMUX 4K HDR Latino – CMHDD 1 link mega, Halloween Kills (2021) [EXTENDED] REMUX 4K HDR Latino – CMHDD 1 link google drive, Halloween Kills (2021) [EXTENDED] REMUX 4K HDR Latino – CMHDD hd 1080p latino.
Comentarios 0