Halloween II (2009) Theatrical Cut 1080p Full Latino

2.142 vistas
1 estrella2 estrellas3 estrellas4 estrellas5 estrellas (1 votos, promedio: 5,00 de 5)
Cargando…

Información de Halloween II (2009) Theatrical Cut 1080p Full Latino

Datos de la película

  • Calidad: Full 1080p
  • Audio: Se especifica abajo de la Sinopsis
  • Subtitulos: No
  • Resolución: 1920x1080p
  • Formato: MKV
  • Codec: H.264
  • Encoder: Dpelis1
  • Mediainfo: Clic para Mostrar Datos Ver
  • Video
    ID                                       : 1
    Format                                   : AVC
    Format/Info                              : Advanced Video Codec
    Format profile                           : [email protected]
    Format settings, CABAC                   : Yes
    Format settings, RefFrames               : 4 frames
    Codec ID                                 : V_MPEG4/ISO/AVC
    Duration                                 : 1 h 45 min
    Bit rate                                 : 11.7 Mb/s
    Width                                    : 1 920 pixels
    Height                                   : 1 080 pixels
    Display aspect ratio                     : 16:9
    Frame rate mode                          : Constant
    Frame rate                               : 23.976 (24000/1001) FPS
    Color space                              : YUV
    Chroma subsampling                       : 4:2:0
    Bit depth                                : 8 bits
    Scan type                                : Progressive
    Bits/(Pixel*Frame)                       : 0.236
    Stream size                              : 8.69 GiB (85%)
    Writing library                          : x264 core 148 r2708 86b7198
    Encoding settings                        : cabac=1 / ref=4 / deblock=1:0:0 / analyse=0x3:0x133 / me=esa / subme=10 / psy=1 / psy_rd=1.00:0.00 / mixed_ref=1 / me_range=24 / chroma_me=1 / trellis=2 / 8x8dct=1 / cqm=0 / deadzone=21,11 / fast_pskip=1 / chroma_qp_offset=-2 / threads=34 / lookahead_threads=5 / sliced_threads=0 / nr=0 / decimate=1 / interlaced=0 / bluray_compat=0 / constrained_intra=0 / bframes=8 / b_pyramid=2 / b_adapt=2 / b_bias=0 / direct=3 / weightb=1 / open_gop=0 / weightp=2 / keyint=240 / keyint_min=24 / scenecut=40 / intra_refresh=0 / rc_lookahead=60 / rc=crf / mbtree=1 / crf=20.0 / qcomp=0.60 / qpmin=0 / qpmax=69 / qpstep=4 / vbv_maxrate=62500 / vbv_bufsize=78125 / crf_max=0.0 / nal_hrd=none / filler=0 / ip_ratio=1.40 / aq=1:1.00
    Default                                  : Yes
    Forced                                   : No
    Color range                              : Limited
    Color primaries                          : BT.709
    Transfer characteristics                 : BT.709
    Matrix coefficients                      : BT.709
    Statistics Tags Issue                    : mkvmerge v10.0.0 ('To Drown In You') 64bit 2017-09-29 02:15:58 / mkvmerge v10.0.0 ('To Drown In You') 64bit 2017-09-29 02:15:58 / UTC 2017-09-27T20:07:20Z
    FromStats_BitRate                        : 12062275
    FromStats_Duration                       : 01:45:29.031000000
    FromStats_FrameCount                     : 151745
    FromStats_StreamSize                     : 9542814570

    Audio #1
    ID                                       : 2
    Format                                   : AC-3
    Format/Info                              : Audio Coding 3
    Format settings, Endianness              : Big
    Codec ID                                 : A_AC3
    Duration                                 : 1 h 45 min
    Bit rate mode                            : Constant
    Bit rate                                 : 256 kb/s
    Channel(s)                               : 2 channels
    Channel positions                        : Front: L R
    Sampling rate                            : 48.0 kHz
    Frame rate                               : 31.250 FPS (1536 SPF)
    Bit depth                                : 16 bits
    Compression mode                         : Lossy
    Stream size                              : 194 MiB (2%)
    Language                                 : Spanish
    Service kind                             : Complete Main
    Default                                  : Yes
    Forced                                   : No
    Statistics Tags Issue                    : mkvmerge v10.0.0 ('To Drown In You') 64bit 2017-09-29 02:15:58 / mkvmerge v10.0.0 ('To Drown In You') 64bit 2017-09-29 02:15:58 / UTC 2017-09-27T20:07:20Z
    FromStats_BitRate                        : 256000
    FromStats_Duration                       : 01:45:55.392000000
    FromStats_FrameCount                     : 198606
    FromStats_StreamSize                     : 203372544

    Audio #2
    ID                                       : 3
    Format                                   : DTS
    Format/Info                              : Digital Theater Systems
    Mode                                     : 16
    Format settings, Endianness              : Big
    Codec ID                                 : A_DTS
    Duration                                 : 1 h 45 min
    Bit rate mode                            : Constant
    Bit rate                                 : 1 509 kb/s
    Channel(s)                               : 6 channels
    Channel positions                        : Front: L C R, Side: L R, LFE
    Sampling rate                            : 48.0 kHz
    Frame rate                               : 93.750 FPS (512 SPF)
    Bit depth                                : 16 bits
    Compression mode                         : Lossy
    Stream size                              : 1.12 GiB (11%)
    Language                                 : English
    Default                                  : No
    Forced                                   : No
    Statistics Tags Issue                    : mkvmerge v10.0.0 ('To Drown In You') 64bit 2017-09-29 02:15:58 / mkvmerge v10.0.0 ('To Drown In You') 64bit 2017-09-29 02:15:58 / UTC 2017-09-27T20:07:20Z
    FromStats_BitRate                        : 1508999
    FromStats_Duration                       : 01:45:55.211000000
    FromStats_FrameCount                     : 595801
    FromStats_StreamSize                     : 1198751612

    Menu
    00:00:00.000                             : :Chapter 1
    00:06:01.319                             : :Chapter 2
    00:10:58.158                             : :Chapter 3
    00:23:20.316                             : :Chapter 4
    00:30:59.191                             : :Chapter 5
    00:37:18.737                             : :Chapter 6
    00:41:43.710                             : :Chapter 7
    00:53:21.365                             : :Chapter 8
    01:01:55.629                             : :Chapter 9
    01:12:22.630                             : :Chapter 10
    01:21:23.212                             : :Chapter 11
    01:25:51.730                             : :Chapter 12
    01:32:36.134                             : :Chapter 13
    01:36:40.003                             : :Chapter 14

  • Peso: 10.1 GB

Sinopsis

Descarar gratis Halloween II (2009) Theatrical Cut 1080p Full Latino. Tras sobrevivir a los sangrientos crímenes de la nche de Halloween, Laurie Strode (Scout Taylor-Compton) trata de rehacer su vida junto al sheriff Brackett (Brad Dourif) y su amiga Annie (Danielle Harris). Pero dos años después de los asesinatos de Michael Myers el pasado vuelve y la joven Strode tendrá que enfrentarse nuevamente al psicópata en una noche regada de horror y sangre.

Nota: Audio Latino AC3 2.0 Exclusivo (Captura de la TV) – Ingles DTS 5.1 (BLU-RAY)

Ficha técnica

  • Titulo original: Halloween II
  • Fecha de lanzamiento: 28-08-2009 (United States of America)
  • Director: Anna Rane, Rob Zombie, Sharon Watt
  • Género: Terror
  • Puntuación: 5.0 1 votos
  • Duración:
    1h 59m

Video trailer de la película

Enlaces de descarga

Rip de Bluray

Descargar Halloween II (2009) Theatrical Cut 1080p Full Latino




Aportes de DPeliculasHDmega la pass es:dpeliculashdmega.org Aportes de CinemaniaHD la pass es:cinemaniahdd.com
Guardado en : Terror

Películas relacionadas

  • Halloween (2018) Full 1080p Latino

    2018
    Halloween (2018) Full 1080p Latino

    4.7 2h 0m 2018

    Descargar Halloween (2018) Full 1080p Latino, Mega, Google Drive, Torrent. Jamie Lee Curtis regresa a...

    Director: David Gordon Green

    Género: FULL 1080p Plateadas

    Actores: Willie Tyrone Ferguson

  • Frenzy (2018) 1080p Subtitulado

    2018
    Frenzy (2018) 1080p Subtitulado

    0.0 1h 25m 2018

    Descargar Frenzy (2018) 1080p Subtitulado, Mega, Google Drive, Torrent. Paige (Gina Vitori) invita a...

    Director: Jose Montesinos

    Género: HD 1080p

    Actores: Taylor Jorgensen

  • Escalofrios 2 (2018) Full HD 1080p Español Latino

    2018
    Escalofrios 2 (2018) Full HD 1080p Español Latino

    5.0 1h 30m 2018

    La familia Quinn, compuesta por Sarah, su hermano pequeño Sonny y su madre Kathy y el mejor amigo de...

    Director: Ari Sandel

    Género: Aventura

    Actores: Wendi McLendon-Covey

  • Pesadillas 2: Noche de Halloween (2018) HD 1080p Latino

    2018
    Pesadillas 2: Noche de Halloween (2018) HD 1080p Latino

    5.0 1h 30m 2018

    Descargar Pesadillas 2: Noche de Halloween (2018) HD 1080p Latino, Mega, Google Drive, Torrent. Secuela...

    Director: Ari Sandel

    Género: Aventura

    Actores: Wendi McLendon-Covey

Comentarios 7
  • peliculero - 09 octubre, 2017

    tienen los subititulos en ingles? no puedo encontrar los subtitulos perfectamente sincronizados =(
    alguna alma caritativa que me pase un link?

  • Ragnarok - 08 octubre, 2017

    hola disculpen, pero cual es la diferencia entre estas y las que ya habian publicado antes, ¿Las otras tenian algun error?, ¿o solo es una actualización de imagen?

    • dpelis - 08 octubre, 2017

      las mismas, solo se resubieron

  • luis - 02 octubre, 2017

    podrias poner toda la saga de HALLOWEEN en google drive? se te agradeceria

  • maria - 29 septiembre, 2017

    muchas gracias gracias !!!!!!!!!!!!!!!!

    • joaquin - 30 septiembre, 2017

      maria como logro descomprimir la peli le puse las cllaves i no me descoprime me sale que anda con errores el archivo o la contraseña esta mal

      • dpelis - 01 octubre, 2017

        instale la version winrar ultima version pero que sea full. sino puede extraer, intente con 7zip, si aun sigue el error , bajar la parte danada de otro servidor. saludos