×

¿Problemas para descargar con Mozilla, EDGE? Deshabilita la opción "Abrir vinculos en una pestaña nueva" tal como lo muestra ésta imagen.

Halloween 4 (1988) REMUX 1080p Latino – CMHDD

227 vistas

Información de Halloween 4 (1988) REMUX 1080p Latino – CMHDD

Datos de la película

  • Calidad: Full 1080p
  • Audio: Español Latino AC3 2.0 DVD - Ingles AC3 5.1 BLURAY
  • Subtitulos: Español Latino SRT
  • Resolución: 1920x1080p
  • Formato: MKV
  • Codec: H.264
  • Encoder: Dracarys
  • Mediainfo: Clic para Mostrar Datos Ver
  • Format                      : Matroska
    Format version              : Version 4
    File size                   : 20.4 GiB
    Duration                    : 1 h 28 min
    Overall bit rate mode       : Variable
    Overall bit rate            : 33.0 Mb/s
    Movie name                  : Halloween 4 (1988) REMUX 1080p Latino - CMHDD
    Encoded date                : UTC 2020-10-27 23:57:53 / UTC 2017-01-19T11:10:30Z
    Writing application         : mkvmerge v51.0.0 ('I Wish') 64-bit
    Writing library             : libebml v1.4.0 + libmatroska v1.6.2 / Lavf55.12.0

    Video
    ID                          : 1
    Format                      : AVC
    Format/Info                 : Advanced Video Codec
    Format profile              : High@L4.1
    Format settings             : CABAC / 2 Ref Frames
    Format settings, CABAC      : Yes
    Format settings, Reference  : 2 frames
    Codec ID                    : V_MPEG4/ISO/AVC
    Duration                    : 1 h 28 min
    Bit rate mode               : Variable
    Width                       : 1 920 pixels
    Height                      : 1 080 pixels
    Display aspect ratio        : 16:9
    Frame rate mode             : Constant
    Frame rate                  : 23.976 (24000/1001) FPS
    Color space                 : YUV
    Chroma subsampling          : 4:2:0
    Bit depth                   : 8 bits
    Scan type                   : Progressive
    Default                     : Yes
    Forced                      : No
    Statistics Tags Issue       : mkvmerge v51.0.0 ('I Wish') 64-bit 2020-10-27 23:57:53 / mkvmerge v51.0.0 ('I Wish') 64-bit 2020-10-27 23:57:53 / UTC 2017-01-19T11:10:30Z
    FromStats_BitRate           : 29924270
    FromStats_Duration          : 01:28:17.292000000
    FromStats_FrameCount        : 127008
    FromStats_StreamSize        : 19814700154
    Duration_Source             : General_Duration

    Audio #1
    ID                          : 2
    Format                      : AC-3
    Format/Info                 : Audio Coding 3
    Commercial name             : Dolby Digital
    Codec ID                    : A_AC3
    Duration                    : 1 h 28 min
    Bit rate mode               : Constant
    Bit rate                    : 192 kb/s
    Channel(s)                  : 2 channels
    Channel layout              : L R
    Sampling rate               : 48.0 kHz
    Frame rate                  : 31.250 FPS (1536 SPF)
    Compression mode            : Lossy
    Stream size                 : 121 MiB (1%)
    Language                    : Spanish
    Service kind                : Complete Main
    Default                     : Yes
    Forced                      : No
    Statistics Tags Issue       : mkvmerge v51.0.0 ('I Wish') 64-bit 2020-10-27 23:57:53 / mkvmerge v51.0.0 ('I Wish') 64-bit 2020-10-27 23:57:53 / UTC 2017-01-19T11:10:30Z
    FromStats_BitRate           : 192000
    FromStats_Duration          : 01:28:17.312000000
    FromStats_FrameCount        : 165541
    FromStats_StreamSize        : 127135488
    Duration_Source             : General_Duration

    Audio #2
    ID                          : 3
    Format                      : MLP FBA
    Format/Info                 : Meridian Lossless Packing FBA
    Commercial name             : Dolby TrueHD
    Codec ID                    : A_TRUEHD
    Duration                    : 1 h 28 min
    Bit rate mode               : Variable
    Maximum bit rate            : 3 315 kb/s
    Channel(s)                  : 6 channels
    Channel layout              : L R C LFE Ls Rs
    Sampling rate               : 48.0 kHz
    Frame rate                  : 1 200.000 FPS (40 SPF)
    Compression mode            : Lossless
    Language                    : English
    Default                     : No
    Forced                      : No
    Statistics Tags Issue       : mkvmerge v51.0.0 ('I Wish') 64-bit 2020-10-27 23:57:53 / mkvmerge v51.0.0 ('I Wish') 64-bit 2020-10-27 23:57:53 / UTC 2017-01-19T11:10:30Z
    FromStats_BitRate           : 2197175
    FromStats_Duration          : 01:28:17.293000000
    FromStats_FrameCount        : 6356751
    FromStats_StreamSize        : 1454885154
    Duration_Source             : General_Duration

    Audio #3
    ID                          : 4
    Format                      : AC-3
    Format/Info                 : Audio Coding 3
    Commercial name             : Dolby Digital
    Codec ID                    : A_AC3
    Duration                    : 1 h 28 min
    Bit rate mode               : Constant
    Bit rate                    : 640 kb/s
    Channel(s)                  : 6 channels
    Channel layout              : L R C LFE Ls Rs
    Sampling rate               : 48.0 kHz
    Frame rate                  : 31.250 FPS (1536 SPF)
    Compression mode            : Lossy
    Stream size                 : 404 MiB (2%)
    Language                    : English
    Service kind                : Complete Main
    Default                     : No
    Forced                      : No
    Statistics Tags Issue       : mkvmerge v51.0.0 ('I Wish') 64-bit 2020-10-27 23:57:53 / mkvmerge v51.0.0 ('I Wish') 64-bit 2020-10-27 23:57:53 / UTC 2017-01-19T11:10:30Z
    FromStats_BitRate           : 640000
    FromStats_Duration          : 01:28:17.312000000
    FromStats_FrameCount        : 165541
    FromStats_StreamSize        : 423784960
    Duration_Source             : General_Duration

    Text #1
    ID                          : 5
    Format                      : UTF-8
    Codec ID                    : S_TEXT/UTF8
    Codec ID/Info               : UTF-8 Plain Text
    Language                    : Spanish
    Default                     : No
    Forced                      : No
    Statistics Tags Issue       : mkvmerge v51.0.0 ('I Wish') 64-bit 2020-10-27 23:57:53 / mkvmerge v51.0.0 ('I Wish') 64-bit 2020-10-27 23:57:53 / UTC 2017-01-19T11:10:30Z
    FromStats_BitRate           : 45
    FromStats_Duration          : 01:24:35.195000000
    FromStats_FrameCount        : 817
    FromStats_StreamSize        : 28644

    Text #2
    ID                          : 6
    Format                      : PGS
    Muxing mode                 : zlib
    Codec ID                    : S_HDMV/PGS
    Codec ID/Info               : Picture based subtitle format used on BDs/HD-DVDs
    Language                    : Spanish
    Default                     : No
    Forced                      : No
    Statistics Tags Issue       : mkvmerge v51.0.0 ('I Wish') 64-bit 2020-10-27 23:57:53 / mkvmerge v51.0.0 ('I Wish') 64-bit 2020-10-27 23:57:53 / UTC 2017-01-19T11:10:30Z
    FromStats_BitRate           : 35257
    FromStats_Duration          : 01:24:35.195000000
    FromStats_FrameCount        : 1634
    FromStats_StreamSize        : 22367106

    Menu
    00:00:00.000                : :Chapter 1
    00:06:48.366                : :Chapter 2
    00:11:38.614                : :Chapter 3
    00:22:43.445                : :Chapter 4
    00:29:12.584                : :Chapter 5
    00:34:36.783                : :Chapter 6
    00:42:46.772                : :Chapter 7
    00:51:36.009                : :Chapter 8
    00:57:57.891                : :Chapter 9
    01:04:42.253                : :Chapter 10
    01:15:32.820                : :Chapter 11
    01:24:49.918                : :Chapter 12

  • Peso: 20.4 GiB

Sinopsis

Michael Myers, un psicópata que mató a dieciséis personas, acabó siendo capturado por su propio médico, el doctor Lomis. Tras pasar diez años encarcelado en una prisión de máxima seguridad, Myers es trasladado, en estado catatónico, al Instituto Mental de Richmond. Pero inexplicablemente se vuelve a escapar con el fin de asesinar a su único familiar vivo, su sobrina Jamie Lloyd. De nuevo el doctor Lomis intentará atraparlo.

Ficha técnica

  • Titulo original: Halloween 4: The Return of Michael Myers
  • Fecha de lanzamiento: 21-10-1988 (United States of America)
  • Director: Dwight H. Little
  • Género: Suspenso, Terror

Video trailer de la película

Enlaces de descarga

Rip de Bluray

Descargar Halloween 4 (1988) REMUX 1080p Latino – CMHDD




Aportes de DPeliculasHDmega la pass es:dpeliculashdmega.org Aportes de CinemaniaHD la pass es:cinemaniahdd.com
Guardado en : Suspenso , Terror

Películas relacionadas

  • La Máquina infernal (2022) WEB-DL 1080p Latino

    La Máquina infernal (2022) WEB-DL 1080p Latino

    2022
    La Máquina infernal (2022) WEB-DL 1080p Latino

    1h 47m 2022

    Descargar La Máquina infernal (2022) WEB-DL 1080p Latino. Un fan obsesivo saca de su escondite al solitario...

    Director: Andrew Hunt

    Género: Suspenso

    Actores: Rocco Salata

  • Borrego: Sal Del Camino (2022) HD 1080p Latino

    Borrego: Sal Del Camino (2022) HD 1080p Latino

    2022
    Borrego: Sal Del Camino (2022) HD 1080p Latino

    1h 42m 2022

    Descargar Borrego: Sal Del Camino (2022) HD 1080p Latino. Una joven botánica se traslada a un pequeño...

    Director: Jesse Harris

    Género: Crimen

    Actores: Olivia Trujillo

  • Borrego: Sal Del Camino (2022) REMUX 1080p Latino

    Borrego: Sal Del Camino (2022) REMUX 1080p Latino

    2022
    Borrego: Sal Del Camino (2022) REMUX 1080p Latino

    1h 42m 2022

    Descargar Borrego: Sal Del Camino (2022) REMUX 1080p Latino. Una joven botánica se traslada a un pequeño...

    Director: Jesse Harris

    Género: Crimen

    Actores: Olivia Trujillo

  • Tren Bala (2022) WEB-DL 4K UHD HDR Latino

    Tren Bala (2022) WEB-DL 4K UHD HDR Latino

    2022
    Tren Bala (2022) WEB-DL 4K UHD HDR Latino

    2h 7m 2022

    Descargar Tren Bala (2022) WEB-DL 4K UHD HDR Latino. El desafortunado asesino "Catarina" está decidido...

    Director: Paul Barry

    Género: 4K HDR

    Actores: Zooey Miyoshi

descargar Halloween 4 (1988) REMUX 1080p Latino – CMHDD Full 1080p 1080p gratis, Halloween 4 (1988) REMUX 1080p Latino – CMHDD Full 1080p mega 1 link, Halloween 4 (1988) REMUX 1080p Latino – CMHDD Full 1080p pelicula completa, descargar Halloween 4 (1988) REMUX 1080p Latino – CMHDD Full 1080p gratis en mega.

Halloween 4 (1988) REMUX 1080p Latino – CMHDD pelicula full hd, Halloween 4 (1988) REMUX 1080p Latino – CMHDD mega latino, Halloween 4 (1988) REMUX 1080p Latino – CMHDD 4k latino, Halloween 4 (1988) REMUX 1080p Latino – CMHDD pelicula completa, Halloween 4 (1988) REMUX 1080p Latino – CMHDD descargar gratis, descargar Halloween 4 (1988) REMUX 1080p Latino – CMHDD pelicula latino, Halloween 4 (1988) REMUX 1080p Latino – CMHDD 1 link mega, Halloween 4 (1988) REMUX 1080p Latino – CMHDD 1 link google drive, Halloween 4 (1988) REMUX 1080p Latino – CMHDD hd 1080p latino.
Comentarios 0