×

¿Problemas para descargar con Mozilla, EDGE? Deshabilita la opción "Abrir vinculos en una pestaña nueva" tal como lo muestra ésta imagen.

Hall Pass (2011) UNRATED REMUX 1080p Latino – CMHDD

144 vistas

Información de Hall Pass (2011) UNRATED REMUX 1080p Latino – CMHDD

Datos de la película

  • Calidad: Full 1080p
  • Audio: Español Latino AC3 5.1 BLURAY - Ingles DTS 5.1 BLURAY
  • Subtitulos: Español Latino PGS
  • Resolución: 1920x1080p
  • Formato: MKV
  • Codec: H.264
  • Encoder: Dracarys
  • Mediainfo: Clic para Mostrar Datos Ver
  • Format                      : Matroska
    Format version              : Version 4
    File size                   : 17.1 GiB
    Duration                    : 1 h 51 min
    Overall bit rate mode       : Variable
    Overall bit rate            : 21.9 Mb/s
    Movie name                  : Hall Pass (2011) UNRATED REMUX 1080p Latino - CMHDD
    Encoded date                : UTC 2023-09-03 16:32:55
    Writing application         : mkvmerge v47.0.0 ('Black Flag') 64-bit
    Writing library             : libebml v1.3.10 + libmatroska v1.5.2
    Cover                       : Yes
    Attachments                 : cover.jpg

    Video
    ID                          : 1
    Format                      : AVC
    Format/Info                 : Advanced Video Codec
    Format profile              : High@L4.1
    Format settings             : CABAC / 2 Ref Frames
    Format settings, CABAC      : Yes
    Format settings, Reference  : 2 frames
    Codec ID                    : V_MPEG4/ISO/AVC
    Duration                    : 1 h 51 min
    Bit rate mode               : Variable
    Bit rate                    : 17.9 Mb/s
    Width                       : 1 920 pixels
    Height                      : 1 080 pixels
    Display aspect ratio        : 16:9
    Frame rate mode             : Constant
    Frame rate                  : 23.976 (24000/1001) FPS
    Color space                 : YUV
    Chroma subsampling          : 4:2:0
    Bit depth                   : 8 bits
    Scan type                   : Progressive
    Bits/(Pixel*Frame)          : 0.360
    Stream size                 : 13.9 GiB (82%)
    Default                     : Yes
    Forced                      : No

    Audio #1
    ID                          : 2
    Format                      : DTS XLL
    Format/Info                 : Digital Theater Systems
    Commercial name             : DTS-HD Master Audio
    Codec ID                    : A_DTS
    Duration                    : 1 h 51 min
    Bit rate mode               : Variable
    Bit rate                    : 3 338 kb/s
    Channel(s)                  : 6 channels
    Channel layout              : C L R Ls Rs LFE
    Sampling rate               : 48.0 kHz
    Frame rate                  : 93.750 FPS (512 SPF)
    Bit depth                   : 24 bits
    Compression mode            : Lossless
    Stream size                 : 2.60 GiB (15%)
    Language                    : English
    Default                     : No
    Forced                      : No

    Audio #2
    ID                          : 3
    Format                      : AC-3
    Format/Info                 : Audio Coding 3
    Commercial name             : Dolby Digital
    Codec ID                    : A_AC3
    Duration                    : 1 h 51 min
    Bit rate mode               : Constant
    Bit rate                    : 640 kb/s
    Channel(s)                  : 6 channels
    Channel layout              : L R C LFE Ls Rs
    Sampling rate               : 48.0 kHz
    Frame rate                  : 31.250 FPS (1536 SPF)
    Compression mode            : Lossy
    Stream size                 : 511 MiB (3%)
    Language                    : Spanish
    Service kind                : Complete Main
    Default                     : Yes
    Forced                      : No

    Text #1
    ID                          : 4
    Format                      : PGS
    Muxing mode                 : zlib
    Codec ID                    : S_HDMV/PGS
    Codec ID/Info               : Picture based subtitle format used on BDs/HD-DVDs
    Duration                    : 1 h 50 min
    Bit rate                    : 45.9 kb/s
    Frame rate                  : 0.583 FPS
    Count of elements           : 3880
    Stream size                 : 36.5 MiB (0%)
    Language                    : Spanish
    Default                     : No
    Forced                      : No

    Text #2
    ID                          : 5
    Format                      : PGS
    Muxing mode                 : zlib
    Codec ID                    : S_HDMV/PGS
    Codec ID/Info               : Picture based subtitle format used on BDs/HD-DVDs
    Duration                    : 1 h 49 min
    Bit rate                    : 341 b/s
    Frame rate                  : 0.005 FPS
    Count of elements           : 33
    Stream size                 : 273 KiB (0%)
    Language                    : Spanish
    Default                     : Yes
    Forced                      : No

    Menu
    00:00:00.000                : en:Capítulo 01
    00:10:15.197                : en:Capítulo 02
    00:22:40.192                : en:Capítulo 03
    00:30:21.528                : en:Capítulo 04
    00:41:44.251                : en:Capítulo 05
    00:55:30.618                : en:Capítulo 06
    01:05:58.371                : en:Capítulo 07
    01:16:36.883                : en:Capítulo 08
    01:25:24.786                : en:Capítulo 09
    01:37:37.351                : en:Capítulo 10
    01:40:40.909                : en:Capítulo 11

  • Peso: 17.1 GiB

Sinopsis

Dos amigos lamentan que el matrimonio les haya arruinado toda posibilidad de diversión, especialmente en lo que al sexo se refiere; sus esposas deciden entonces concederles un fin de semana libre, un paréntesis de libertad, en el que podrán desmadrarse todo lo que quieran, sin remordimientos ni explicaciones

Ficha técnica

Video trailer de la película

Enlaces de descarga

Rip de Bluray

Descargar Hall Pass (2011) UNRATED REMUX 1080p Latino – CMHDD


Aportes de DPeliculasHDmega la pass es:dpeliculashdmega.org Aportes de CinemaniaHD la pass es:cinemaniahdd.com Aportes recientes:cinemaniahdd.net
Guardado en : Comedia , Romance

Películas relacionadas

  • La Duquesa (2008) Full HD 1080p Latino-CMHDD

    La Duquesa (2008) Full HD 1080p Latino-CMHDD

    2008
    La Duquesa (2008) Full HD 1080p Latino-CMHDD

    1h 51m 2008

    Descargar La Duquesa (2008) Full HD 1080p Latino-CMHDD. Hermosa, glamurosa y adorada por el pueblo, Georgiana...

    Director: Saul Dibb

    Género: Drama

    Actores: Thomas Arnold

  • La Duquesa (2008) REMUX 1080p Latino-CMHDD

    La Duquesa (2008) REMUX 1080p Latino-CMHDD

    2008
    La Duquesa (2008) REMUX 1080p Latino-CMHDD

    1h 51m 2008

    Descargar La Duquesa (2008) REMUX 1080p Latino-CMHDD. Hermosa, glamurosa y adorada por el pueblo, Georgiana...

    Director: Saul Dibb

    Género: Drama

    Actores: Thomas Arnold

  • Nada que ver (2023) WEB-DL 1080p Latino

    Nada que ver (2023) WEB-DL 1080p Latino

    2023
    Nada que ver (2023) WEB-DL 1080p Latino

    1h 30m 2023

    Descargar Nada que ver (2023) WEB-DL 1080p Latino. Después de que Carlos tiene la tarea de cuidar a...

    Director: Kenya Marquez

    Género: Comedia

    Actores: Rebecca Jones

descargar Hall Pass (2011) UNRATED REMUX 1080p Latino – CMHDD Full 1080p 1080p gratis, Hall Pass (2011) UNRATED REMUX 1080p Latino – CMHDD Full 1080p mega 1 link, Hall Pass (2011) UNRATED REMUX 1080p Latino – CMHDD Full 1080p pelicula completa, descargar Hall Pass (2011) UNRATED REMUX 1080p Latino – CMHDD Full 1080p gratis en mega.

Hall Pass (2011) UNRATED REMUX 1080p Latino – CMHDD pelicula full hd, Hall Pass (2011) UNRATED REMUX 1080p Latino – CMHDD mega latino, Hall Pass (2011) UNRATED REMUX 1080p Latino – CMHDD 4k latino, Hall Pass (2011) UNRATED REMUX 1080p Latino – CMHDD pelicula completa, Hall Pass (2011) UNRATED REMUX 1080p Latino – CMHDD descargar gratis, descargar Hall Pass (2011) UNRATED REMUX 1080p Latino – CMHDD pelicula latino, Hall Pass (2011) UNRATED REMUX 1080p Latino – CMHDD 1 link mega, Hall Pass (2011) UNRATED REMUX 1080p Latino – CMHDD 1 link google drive, Hall Pass (2011) UNRATED REMUX 1080p Latino – CMHDD hd 1080p latino.
Comentarios 0