×

¿Problemas para descargar con Mozilla, EDGE? Deshabilita la opción "Abrir vinculos en una pestaña nueva" tal como lo muestra ésta imagen.

Hailey Dean Mysteries: A Prescription for Murder (2019) WEB-DL 1080p Latino

187 vistas

Información de Hailey Dean Mysteries: A Prescription for Murder (2019) WEB-DL 1080p Latino

Datos de la película

  • Calidad: WEBDL
  • Audio: Se especifica abajo de la Sinopsis
  • Subtitulos: Español Latino SRT- FORZADOS SRT
  • Resolución: 1920x1080
  • Formato: MKV
  • Codec: H.264
  • Encoder: cinemaniahdd
  • Mediainfo: Clic para Mostrar Datos Ver
  • Los Misterios De Hailey Dean, Una Droga Letal (2019) WEB-DL 1080p Latino [CNMNHDD].mkv
    Format                      : Matroska
    Format version              : Version 4
    File size                   : 2.32 GiB
    Duration                    : 1 h 23 min
    Overall bit rate mode       : Variable
    Overall bit rate            : 3 946 kb/s
    Movie name                  : Los Misterios De Hailey Dean, Una Droga Letal (2019) - CinemaniaHDD.Net
    Encoded date                : UTC 2020-08-12 20:13:50
    Writing application         : mkvmerge v46.0.0 ('No Deeper Escape') 64-bit
    Writing library             : libebml v1.3.10 + libmatroska v1.5.2

    Video
    ID                          : 1
    Format                      : AVC
    Format/Info                 : Advanced Video Codec
    Format profile              : High@L4
    Format settings             : CABAC / 4 Ref Frames
    Format settings, CABAC      : Yes
    Format settings, Reference  : 4 frames
    Codec ID                    : V_MPEG4/ISO/AVC
    Duration                    : 1 h 23 min
    Bit rate mode               : Variable
    Bit rate                    : 3 373 kb/s
    Maximum bit rate            : 5 100 kb/s
    Width                       : 1 920 pixels
    Height                      : 1 080 pixels
    Display aspect ratio        : 16:9
    Frame rate mode             : Constant
    Frame rate                  : 30.000 FPS
    Color space                 : YUV
    Chroma subsampling          : 4:2:0
    Bit depth                   : 8 bits
    Scan type                   : Progressive
    Bits/(Pixel*Frame)          : 0.054
    Stream size                 : 1.98 GiB (85%)
    Title                       : CinemaniaHDD
    Language                    : English
    Default                     : Yes
    Forced                      : No

    Audio #1
    ID                          : 2
    Format                      : AAC LC
    Format/Info                 : Advanced Audio Codec Low Complexity
    Codec ID                    : A_AAC-2
    Duration                    : 1 h 23 min
    Bit rate                    : 192 kb/s
    Channel(s)                  : 2 channels
    Channel layout              : L R
    Sampling rate               : 48.0 kHz
    Frame rate                  : 46.875 FPS (1024 SPF)
    Compression mode            : Lossy
    Stream size                 : 114 MiB (5%)
    Title                       : Español latino [CinemaniaHDD]
    Language                    : Spanish
    Default                     : Yes
    Forced                      : No

    Audio #2
    ID                          : 3
    Format                      : AAC LC
    Format/Info                 : Advanced Audio Codec Low Complexity
    Codec ID                    : A_AAC-2
    Duration                    : 1 h 23 min
    Bit rate                    : 192 kb/s
    Channel(s)                  : 2 channels
    Channel layout              : L R
    Sampling rate               : 48.0 kHz
    Frame rate                  : 46.875 FPS (1024 SPF)
    Compression mode            : Lossy
    Stream size                 : 114 MiB (5%)
    Title                       : Inglés [CinemaniaHDD]
    Language                    : English
    Default                     : No
    Forced                      : No

    Audio #3
    ID                          : 4
    Format                      : AAC LC
    Format/Info                 : Advanced Audio Codec Low Complexity
    Codec ID                    : A_AAC-2
    Duration                    : 1 h 23 min
    Bit rate                    : 192 kb/s
    Channel(s)                  : 2 channels
    Channel layout              : L R
    Sampling rate               : 48.0 kHz
    Frame rate                  : 46.875 FPS (1024 SPF)
    Compression mode            : Lossy
    Stream size                 : 114 MiB (5%)
    Title                       : Portugués [CinemaniaHDD]
    Language                    : Portuguese
    Default                     : No
    Forced                      : No

    Text #1
    ID                          : 5
    Format                      : UTF-8
    Codec ID                    : S_TEXT/UTF8
    Codec ID/Info               : UTF-8 Plain Text
    Duration                    : 40 min 7 s
    Bit rate                    : 0 b/s
    Count of elements           : 2
    Stream size                 : 17.0 Bytes (0%)
    Title                       : Forzados [CinemaniaHDD]
    Language                    : Spanish
    Default                     : Yes
    Forced                      : Yes

    Text #2
    ID                          : 6
    Format                      : UTF-8
    Codec ID                    : S_TEXT/UTF8
    Codec ID/Info               : UTF-8 Plain Text
    Duration                    : 1 h 22 min
    Bit rate                    : 91 b/s
    Count of elements           : 1512
    Stream size                 : 55.7 KiB (0%)
    Title                       : Español latino [CinemaniaHDD]
    Language                    : Spanish
    Default                     : No
    Forced                      : No

     

  • Peso: 2.32 GiB

Sinopsis

La psicóloga y ex-abogada Hailey Dean se involucra en un nuevo misterio cuando ayuda a su amigo, el detective Garland Fincher, a investigar una serie de asesinatos en el Hospital Atlanta Memorial. Pero el caso se complica aún más cuando la novia de Fincher, la Dra. Meghan Phillips, es señalada como sospechosa del primer crimen.

Español Latino AAC 2.0 HBOgo – Ingles AAC 2.0 HBOgo – Potugues AAC 2.0 HBOgo

Ficha técnica

  • Titulo original: Hailey Dean Mysteries: A Prescription for Murder
  • Fecha de lanzamiento: 12-05-2019 (United States of America)
  • Director: Allan Harmon, Peter Dashkewytch
  • Género: Misterio

Video trailer de la película

Enlaces de descarga

Rip de Bluray

Descargar Hailey Dean Mysteries: A Prescription for Murder (2019) WEB-DL 1080p Latino




Aportes de DPeliculasHDmega la pass es:dpeliculashdmega.org Aportes de CinemaniaHD la pass es:cinemaniahdd.com
Guardado en : Misterio

Películas relacionadas

  • Infiniti (2022) Primera Temporada WEB-DL 1080p Latino

    Infiniti (2022) Primera Temporada WEB-DL 1080p Latino

    2022
    Infiniti (2022) Primera Temporada WEB-DL 1080p Latino

    0h 52m 2022

    La ISS, la Estación Espacial Internacional se ha quedado en silencio. La tripulación está en peligro....

    Director: Stéphane Pannetier

    Género: Drama

    Actores: Vlad Ivanov

  • El Perfumista (2022) NF WEB-DL 1080p Latino

    El Perfumista (2022) NF WEB-DL 1080p Latino

    2022
    El Perfumista (2022) NF WEB-DL 1080p Latino

    1h 36m 2022

    Descargar El Perfumista (2022) NF WEB-DL 1080p Latino. Para recuperar su sentido del olfato y el afecto...

    Director: Nils Willbrandt

    Género: Crimen

    Actores: Sólveig Arnarsdóttir

  • Venganza (2022) HD 1080p Latino

    Venganza (2022) HD 1080p Latino

    2022
    Venganza (2022) HD 1080p Latino

    1h 47m 2022

    Descargar Venganza (2022) HD 1080p Latino. Ben Manalowitz, periodista y presentador de podcasts, viaja...

    Director: Tara Hunter

    Género: Comedia

    Actores: Zach Villa

  • Venganza (2022) PLACEBO Full HD 1080p Latino

    Venganza (2022) PLACEBO Full HD 1080p Latino

    2022
    Venganza (2022) PLACEBO Full HD 1080p Latino

    1h 47m 2022

    Descargar Venganza (2022) PLACEBO Full HD 1080p Latino. Ben Manalowitz, periodista y presentador de podcasts,...

    Director: Tara Hunter

    Género: Comedia

    Actores: Zach Villa

  • Venganza (2022) REMUX 1080p Latino

    Venganza (2022) REMUX 1080p Latino

    2022
    Venganza (2022) REMUX 1080p Latino

    1h 47m 2022

    Descargar Venganza (2022) REMUX 1080p Latino. Ben Manalowitz, periodista y presentador de podcasts, viaja...

    Director: Tara Hunter

    Género: Comedia

    Actores: Zach Villa

descargar Hailey Dean Mysteries: A Prescription for Murder (2019) WEB-DL 1080p Latino WEBDL 1080p gratis, Hailey Dean Mysteries: A Prescription for Murder (2019) WEB-DL 1080p Latino WEBDL mega 1 link, Hailey Dean Mysteries: A Prescription for Murder (2019) WEB-DL 1080p Latino WEBDL pelicula completa, descargar Hailey Dean Mysteries: A Prescription for Murder (2019) WEB-DL 1080p Latino WEBDL gratis en mega.

Hailey Dean Mysteries: A Prescription for Murder (2019) WEB-DL 1080p Latino pelicula full hd, Hailey Dean Mysteries: A Prescription for Murder (2019) WEB-DL 1080p Latino mega latino, Hailey Dean Mysteries: A Prescription for Murder (2019) WEB-DL 1080p Latino 4k latino, Hailey Dean Mysteries: A Prescription for Murder (2019) WEB-DL 1080p Latino pelicula completa, Hailey Dean Mysteries: A Prescription for Murder (2019) WEB-DL 1080p Latino descargar gratis, descargar Hailey Dean Mysteries: A Prescription for Murder (2019) WEB-DL 1080p Latino pelicula latino, Hailey Dean Mysteries: A Prescription for Murder (2019) WEB-DL 1080p Latino 1 link mega, Hailey Dean Mysteries: A Prescription for Murder (2019) WEB-DL 1080p Latino 1 link google drive, Hailey Dean Mysteries: A Prescription for Murder (2019) WEB-DL 1080p Latino hd 1080p latino.
Comentarios 0