×

¿Problemas para descargar con Mozilla, EDGE? Deshabilita la opción "Abrir vinculos en una pestaña nueva" tal como lo muestra ésta imagen.

Hacksaw Ridge (2016) REMUX 4K HDR Latino – CMHDD

290 vistas

Información de Hacksaw Ridge (2016) REMUX 4K HDR Latino – CMHDD

Datos de la película

  • Calidad: 4K HDR
  • Audio: Español Latino AC3 5.1 BLURAY - Ingles AC3 5.1 BLURAY
  • Subtitulos: Español Latino PGS
  • Resolución: 3840x2160p
  • Formato: MKV
  • Codec: H.264
  • Encoder: Dracarys
  • Mediainfo: Clic para Mostrar Datos Ver
  • Format                      : Matroska
    Format version              : Version 4
    File size                   : 70.3 GiB
    Duration                    : 2 h 19 min
    Overall bit rate mode       : Variable
    Overall bit rate            : 72.2 Mb/s
    Movie name                  : Hacksaw Ridge (2016) REMUX 4K HDR Latino - CMHDD
    Encoded date                : UTC 2023-03-04 23:36:20
    Writing application         : mkvmerge v47.0.0 ('Black Flag') 64-bit
    Writing library             : libebml v1.3.10 + libmatroska v1.5.2
    Cover                       : Yes
    Attachments                 : cover.jpg

    Video
    ID                          : 1
    ID in the original source m : 4113 (0x1011)
    Format                      : HEVC
    Format/Info                 : High Efficiency Video Coding
    Format profile              : Main 10@L5.1@High
    HDR format                  : SMPTE ST 2086, HDR10 compatible
    Codec ID                    : V_MPEGH/ISO/HEVC
    Duration                    : 2 h 19 min
    Bit rate                    : 66.6 Mb/s
    Width                       : 3 840 pixels
    Height                      : 2 160 pixels
    Display aspect ratio        : 16:9
    Frame rate mode             : Constant
    Frame rate                  : 23.976 (24000/1001) FPS
    Color space                 : YUV
    Chroma subsampling          : 4:2:0 (Type 2)
    Bit depth                   : 10 bits
    Bits/(Pixel*Frame)          : 0.335
    Stream size                 : 64.8 GiB (92%)
    Writing library             : ATEME Titan KFE 3.7.3 (4.7.3.1003)
    Default                     : Yes
    Forced                      : No
    Color range                 : Limited
    Color primaries             : BT.2020
    Transfer characteristics    : PQ
    Matrix coefficients         : BT.2020 non-constant
    Mastering display color pri : Display P3
    Mastering display luminance : min: 0.0000 cd/m2, max: 1000 cd/m2
    Maximum Content Light Level : 1000 cd/m2
    Maximum Frame-Average Light : 321 cd/m2
    Original source medium      : Blu-ray

    Audio #1
    ID                          : 2
    ID in the original source m : 4352 (0x1100)
    Format                      : MLP FBA 16-ch
    Format/Info                 : Meridian Lossless Packing FBA with 16-channel presentation
    Commercial name             : Dolby TrueHD with Dolby Atmos
    Codec ID                    : A_TRUEHD
    Duration                    : 2 h 19 min
    Bit rate mode               : Variable
    Bit rate                    : 4 304 kb/s
    Maximum bit rate            : 8 544 kb/s
    Channel(s)                  : 8 channels
    Channel layout              : L R C LFE Ls Rs Lb Rb
    Sampling rate               : 48.0 kHz
    Frame rate                  : 1 200.000 FPS (40 SPF)
    Compression mode            : Lossless
    Delay relative to video     : 32 ms
    Stream size                 : 4.19 GiB (6%)
    Language                    : English
    Default                     : No
    Forced                      : No
    Original source medium      : Blu-ray
    Number of dynamic objects   : 15
    Bed channel count           : 1 channel
    Bed channel configuration   : LFE

    Audio #2
    ID                          : 3
    ID in the original source m : 4352 (0x1100)
    Format                      : AC-3
    Format/Info                 : Audio Coding 3
    Commercial name             : Dolby Digital
    Format settings             : Dolby Surround EX
    Codec ID                    : A_AC3
    Duration                    : 2 h 19 min
    Bit rate mode               : Constant
    Bit rate                    : 640 kb/s
    Channel(s)                  : 6 channels
    Channel layout              : L R C LFE Ls Rs
    Sampling rate               : 48.0 kHz
    Frame rate                  : 31.250 FPS (1536 SPF)
    Compression mode            : Lossy
    Delay relative to video     : 31 ms
    Stream size                 : 638 MiB (1%)
    Language                    : English
    Service kind                : Complete Main
    Default                     : No
    Forced                      : No
    Original source medium      : Blu-ray

    Audio #3
    ID                          : 4
    ID in the original source m : 4353 (0x1101)
    Format                      : AC-3
    Format/Info                 : Audio Coding 3
    Commercial name             : Dolby Digital
    Codec ID                    : A_AC3
    Duration                    : 2 h 19 min
    Bit rate mode               : Constant
    Bit rate                    : 640 kb/s
    Channel(s)                  : 6 channels
    Channel layout              : L R C LFE Ls Rs
    Sampling rate               : 48.0 kHz
    Frame rate                  : 31.250 FPS (1536 SPF)
    Compression mode            : Lossy
    Stream size                 : 638 MiB (1%)
    Language                    : Spanish
    Service kind                : Complete Main
    Default                     : Yes
    Forced                      : No
    Original source medium      : Blu-ray

    Text
    ID                          : 5
    ID in the original source m : 4769 (0x12A1)
    Format                      : PGS
    Muxing mode                 : zlib
    Codec ID                    : S_HDMV/PGS
    Codec ID/Info               : Picture based subtitle format used on BDs/HD-DVDs
    Duration                    : 2 h 12 min
    Bit rate                    : 25.9 kb/s
    Frame rate                  : 0.328 FPS
    Count of elements           : 2598
    Stream size                 : 24.5 MiB (0%)
    Language                    : Spanish
    Default                     : No
    Forced                      : No
    Original source medium      : Blu-ray

    Menu
    00:00:00.000                : en:Capítulo 01
    00:09:18.766                : en:Capítulo 02
    00:18:41.995                : en:Capítulo 03
    00:26:34.509                : en:Capítulo 04
    00:33:00.561                : en:Capítulo 05
    00:40:04.151                : en:Capítulo 06
    00:50:07.212                : en:Capítulo 07
    00:57:01.543                : en:Capítulo 08
    01:04:21.649                : en:Capítulo 09
    01:17:50.207                : en:Capítulo 10
    01:23:58.700                : en:Capítulo 11
    01:31:21.726                : en:Capítulo 12
    01:39:02.811                : en:Capítulo 13
    01:46:07.569                : en:Capítulo 14
    01:59:48.306                : en:Capítulo 15
    02:07:13.292                : en:Capítulo 16

  • Peso: 70.3 GiB

Sinopsis

Narra la historia de Desmond Doss, un joven médico militar que participó en la sangrienta batalla de Okinawa, en el Pacífico durante la II Guerra Mundial, y se convirtió en el primer objetor de conciencia en la historia estadounidense en recibir la Medalla de Honor del Congreso. Doss quería servir a su país, pero desde pequeño se había hecho una promesa a sí mismo: no coger jamás ningún arma.

Ficha técnica

Video trailer de la película

Enlaces de descarga

Rip de Bluray

Descargar Hacksaw Ridge (2016) REMUX 4K HDR Latino – CMHDD


Aportes de DPeliculasHDmega la pass es:dpeliculashdmega.org Aportes de CinemaniaHD la pass es:cinemaniahdd.com Aportes recientes:cinemaniahdd.net
Guardado en : Bélica , Drama , Historia

Películas relacionadas

descargar Hacksaw Ridge (2016) REMUX 4K HDR Latino – CMHDD 4K HDR 1080p gratis, Hacksaw Ridge (2016) REMUX 4K HDR Latino – CMHDD 4K HDR mega 1 link, Hacksaw Ridge (2016) REMUX 4K HDR Latino – CMHDD 4K HDR pelicula completa, descargar Hacksaw Ridge (2016) REMUX 4K HDR Latino – CMHDD 4K HDR gratis en mega.

Hacksaw Ridge (2016) REMUX 4K HDR Latino – CMHDD pelicula full hd, Hacksaw Ridge (2016) REMUX 4K HDR Latino – CMHDD mega latino, Hacksaw Ridge (2016) REMUX 4K HDR Latino – CMHDD 4k latino, Hacksaw Ridge (2016) REMUX 4K HDR Latino – CMHDD pelicula completa, Hacksaw Ridge (2016) REMUX 4K HDR Latino – CMHDD descargar gratis, descargar Hacksaw Ridge (2016) REMUX 4K HDR Latino – CMHDD pelicula latino, Hacksaw Ridge (2016) REMUX 4K HDR Latino – CMHDD 1 link mega, Hacksaw Ridge (2016) REMUX 4K HDR Latino – CMHDD 1 link google drive, Hacksaw Ridge (2016) REMUX 4K HDR Latino – CMHDD hd 1080p latino.
Comentarios 0