×

¿Problemas para descargar con Mozilla, EDGE? Deshabilita la opción "Abrir vinculos en una pestaña nueva" tal como lo muestra ésta imagen.

Hasta el último hombre (2016) Full HD 1080p Latino

12.418 vistas

Información de Hasta el último hombre (2016) Full HD 1080p Latino

Datos de la película

  • Calidad: Full 1080p
  • Audio: Se especifica abajo de la Sinopsis
  • Subtitulos: Español Latino PGS - Ingles PGS
  • Resolución: 1920x1080p
  • Formato: MKV
  • Codec: H.264
  • Encoder: CinefiloCool
  • Mediainfo: Clic para Mostrar Datos Ver
  • Hasta El Ultimo Hombre (2016) Full HD 1080p Latino-CMHDD.mkv
    Format                      : Matroska
    Format version              : Version 4
    File size                   : 6.37 GiB
    Duration                    : 2 h 19 min
    Overall bit rate            : 6 543 kb/s
    Movie name                  : Hacksaw Ridge (2016) CinemaniaHDD.Net
    Encoded date                : UTC 2022-12-31 01:37:22
    Writing application         : mkvmerge v56.1.0 ('My Friend') 64-bit
    Writing library             : libebml v1.4.2 + libmatroska v1.6.4
    Attachments                 : CINEMANIAHD.png

    Video
    ID                          : 1
    Format                      : AVC
    Format/Info                 : Advanced Video Codec
    Format profile              : High@L4.1
    Format settings             : CABAC / 4 Ref Frames
    Format settings, CABAC      : Yes
    Format settings, Reference  : 4 frames
    Codec ID                    : V_MPEG4/ISO/AVC
    Duration                    : 2 h 19 min
    Bit rate                    : 3 957 kb/s
    Width                       : 1 920 pixels
    Height                      : 1 080 pixels
    Display aspect ratio        : 16:9
    Frame rate mode             : Constant
    Frame rate                  : 23.976 (24000/1001) FPS
    Color space                 : YUV
    Chroma subsampling          : 4:2:0
    Bit depth                   : 8 bits
    Scan type                   : Progressive
    Bits/(Pixel*Frame)          : 0.080
    Stream size                 : 3.85 GiB (60%)
    Title                       : Full HD1080p [CinemaniaHDD]
    Writing library             : x264 core 163 r3059 b684ebe0
    Encoding settings           : cabac=1 / ref=4 / deblock=1:0:0 / analyse=0x3:0x133 / me=tesa / subme=11 / psy=1 / psy_rd=1.00:0.00 / mixed_ref=1 / me_range=24 / chroma_me=1 / trellis=2 / 8x8dct=1 / cqm=0 / deadzone=21,11 / fast_pskip=0 / chroma_qp_offset=-2 / threads=24 / lookahead_threads=6 / sliced_threads=0 / nr=0 / decimate=1 / interlaced=0 / bluray_compat=0 / constrained_intra=0 / bframes=16 / b_pyramid=2 / b_adapt=2 / b_bias=0 / direct=3 / weightb=1 / open_gop=0 / weightp=2 / keyint=240 / keyint_min=24 / scenecut=40 / intra_refresh=0 / rc_lookahead=60 / rc=crf / mbtree=1 / crf=20.0 / qcomp=0.60 / qpmin=0 / qpmax=69 / qpstep=4 / vbv_maxrate=62500 / vbv_bufsize=78125 / crf_max=0.0 / nal_hrd=none / filler=0 / ip_ratio=1.40 / aq=1:1.00
    Default                     : Yes
    Forced                      : Yes
    Color range                 : Limited
    Color primaries             : BT.709
    Transfer characteristics    : BT.709
    Matrix coefficients         : BT.709

    Audio #1
    ID                          : 2
    Format                      : AC-3
    Format/Info                 : Audio Coding 3
    Commercial name             : Dolby Digital
    Codec ID                    : A_AC3
    Duration                    : 2 h 19 min
    Bit rate mode               : Constant
    Bit rate                    : 640 kb/s
    Channel(s)                  : 6 channels
    Channel layout              : L R C LFE Ls Rs
    Sampling rate               : 48.0 kHz
    Frame rate                  : 31.250 FPS (1536 SPF)
    Compression mode            : Lossy
    Delay relative to video     : 10 ms
    Stream size                 : 638 MiB (10%)
    Title                       : Español Latino ORG SMMT [CinemaniaHDD]
    Language                    : Spanish
    Service kind                : Complete Main
    Default                     : Yes
    Forced                      : Yes

    Audio #2
    ID                          : 3
    Format                      : AC-3
    Format/Info                 : Audio Coding 3
    Commercial name             : Dolby Digital
    Codec ID                    : A_AC3
    Duration                    : 2 h 19 min
    Bit rate mode               : Constant
    Bit rate                    : 640 kb/s
    Channel(s)                  : 6 channels
    Channel layout              : L R C LFE Ls Rs
    Sampling rate               : 48.0 kHz
    Frame rate                  : 31.250 FPS (1536 SPF)
    Compression mode            : Lossy
    Delay relative to video     : 23 ms
    Stream size                 : 638 MiB (10%)
    Title                       : Español Latino REDUB DF [CinemaniaHDD]
    Language                    : Spanish
    Service kind                : Complete Main
    Default                     : No
    Forced                      : No

    Audio #3
    ID                          : 4
    Format                      : E-AC-3
    Format/Info                 : Enhanced AC-3
    Commercial name             : Dolby Digital Plus
    Codec ID                    : A_EAC3
    Duration                    : 2 h 19 min
    Bit rate mode               : Constant
    Bit rate                    : 640 kb/s
    Channel(s)                  : 6 channels
    Channel layout              : L R C LFE Ls Rs
    Sampling rate               : 48.0 kHz
    Frame rate                  : 31.250 FPS (1536 SPF)
    Compression mode            : Lossy
    Delay relative to video     : 14 s 440 ms
    Stream size                 : 637 MiB (10%)
    Title                       : Español Latino REDUB DF EAC3[CinemaniaHDD]
    Language                    : Spanish
    Service kind                : Complete Main
    Default                     : No
    Forced                      : No

    Audio #4
    ID                          : 5
    Format                      : AC-3
    Format/Info                 : Audio Coding 3
    Commercial name             : Dolby Digital
    Codec ID                    : A_AC3
    Duration                    : 2 h 19 min
    Bit rate mode               : Constant
    Bit rate                    : 640 kb/s
    Channel(s)                  : 6 channels
    Channel layout              : L R C LFE Ls Rs
    Sampling rate               : 48.0 kHz
    Frame rate                  : 31.250 FPS (1536 SPF)
    Compression mode            : Lossy
    Stream size                 : 638 MiB (10%)
    Title                       : Ingles AC3 [CinemaniaHDD]
    Language                    : English
    Service kind                : Complete Main
    Default                     : No
    Forced                      : No

    Text #1
    ID                          : 6
    Format                      : PGS
    Muxing mode                 : zlib
    Codec ID                    : S_HDMV/PGS
    Codec ID/Info               : Picture based subtitle format used on BDs/HD-DVDs
    Duration                    : 1 h 46 min
    Bit rate                    : 211 b/s
    Count of elements           : 14
    Stream size                 : 165 KiB (0%)
    Title                       : Forzados-PGS [CinemaniaHDD]
    Language                    : Spanish
    Default                     : No
    Forced                      : No

    Text #2
    ID                          : 7
    Format                      : PGS
    Muxing mode                 : zlib
    Codec ID                    : S_HDMV/PGS
    Codec ID/Info               : Picture based subtitle format used on BDs/HD-DVDs
    Duration                    : 2 h 12 min
    Bit rate                    : 27.7 kb/s
    Count of elements           : 2604
    Stream size                 : 26.2 MiB (0%)
    Title                       : Español-PGS [CinemaniaHDD]
    Language                    : Spanish
    Default                     : No
    Forced                      : No

    Text #3
    ID                          : 8
    Format                      : PGS
    Muxing mode                 : zlib
    Codec ID                    : S_HDMV/PGS
    Codec ID/Info               : Picture based subtitle format used on BDs/HD-DVDs
    Duration                    : 2 h 9 min
    Bit rate                    : 34.9 kb/s
    Count of elements           : 3316
    Stream size                 : 32.4 MiB (0%)
    Title                       : Ingles-PGS [CinemaniaHDD]
    Language                    : English
    Default                     : No
    Forced                      : No

    Text #4
    ID                          : 9
    Format                      : UTF-8
    Codec ID                    : S_TEXT/UTF8
    Codec ID/Info               : UTF-8 Plain Text
    Duration                    : 2 h 12 min
    Bit rate                    : 0 b/s
    Count of elements           : 16
    Stream size                 : 693 Bytes (0%)
    Title                       : Forzados-SRT [CinemaniaHDD]
    Language                    : Spanish
    Default                     : Yes
    Forced                      : Yes

    Text #5
    ID                          : 10
    Format                      : UTF-8
    Codec ID                    : S_TEXT/UTF8
    Codec ID/Info               : UTF-8 Plain Text
    Duration                    : 2 h 10 min
    Bit rate                    : 45 b/s
    Count of elements           : 1430
    Stream size                 : 43.1 KiB (0%)
    Title                       : Español-SRT [CinemaniaHDD]
    Language                    : Spanish
    Default                     : No
    Forced                      : No

    Menu
    00:00:00.000                : Chapter 01
    00:09:18.766                : Chapter 02
    00:18:41.996                : Chapter 03
    00:26:34.510                : Chapter 04
    00:33:00.562                : Chapter 05
    00:40:04.152                : Chapter 06
    00:50:07.212                : Chapter 07
    00:57:01.543                : Chapter 08
    01:04:21.649                : Chapter 09
    01:17:50.207                : Chapter 10
    01:23:58.700                : Chapter 11
    01:31:21.726                : Chapter 12
    01:39:02.812                : Chapter 13
    01:46:07.569                : Chapter 14
    01:59:48.306                : Chapter 15
    02:07:13.292                : Chapter 16

  • Peso: 6.37 GiB

Sinopsis

Descargar Hasta el último hombre (2016) Full HD 1080p Latino. Japón, 1945. Desmond Doss (Andrew Garfield), un hombre contrario a la violencia, se alista en el ejército de EEUU para servir como médico de guerra en plena II Guerra Mundial. Tras luchar contra todo el estamento militar y enfrentarse a un juicio de guerra por su negativa a coger un rifle, consigue su objetivo y es enviado a servir como médico al frente japonés. A pesar de ser recibido con recelo por todo el batallón durante la salvaje toma de Okinawa, Desmond demuestra su valor salvando a 75 hombres heridos consiguiendo el respeto de los soldados…

Audio Español Latino AC3 5.1 Dub Summit – AC3 5.1 + EAC3 5.1 Dub Diamond Films – Ingles AC3 5.1 Bluray

RESUBIDA NUEVO RIP VERSION PLACEBO!!!

Ficha técnica

Video trailer de la película

Enlaces de descarga

Rip de Bluray

Descargar Hasta el último hombre (2016) Full HD 1080p Latino




Aportes de DPeliculasHDmega la pass es:dpeliculashdmega.org Aportes de CinemaniaHD la pass es:cinemaniahdd.com

Películas relacionadas

  • Quantum Leap (2022) Temporada 1 WEB-DL 1080p Latino

    Quantum Leap (2022) Temporada 1 WEB-DL 1080p Latino

    2022
    Quantum Leap (2022) Temporada 1 WEB-DL 1080p Latino

    0h 43m 2022

    Han pasado 27 años desde que el Dr. Sam Beckett pisó el acelerador Quantum Leap y desapareció. Ahora...

    Director: Donald P. Bellisario

    Género: Drama

    Actores: Raymond Lee

  • Gladiador (2000) EXTENDED CUT 1080p Latino

    Gladiador (2000) EXTENDED CUT 1080p Latino

    2000
    Gladiador (2000) EXTENDED CUT 1080p Latino

    2h 35m 2000

    Gladiador (2000) EXTENDED CUT 1080p Latino. Máximo, General de las Legiones Romanas, es querido por...

    Director: Ridley Scott

    Género: Acción

    Actores: Tony Curran

  • Gladiador (2000) EXTENDED CUT Full HD 1080p Latino

    Gladiador (2000) EXTENDED CUT Full HD 1080p Latino

    2000
    Gladiador (2000) EXTENDED CUT Full HD 1080p Latino

    2h 35m 2000

    Descargar Gladiador (2000) [Extended Cut] Full HD 1080p Latino. Máximo, General de las Legiones Romanas,...

    Director: Ridley Scott

    Género: Acción

    Actores: Tony Curran

  • Mi amigo el dragón (2016) Full HD 1080p Latino

    Mi amigo el dragón (2016) Full HD 1080p Latino

    2016
    Mi amigo el dragón (2016) Full HD 1080p Latino

    1h 43m 2016

    Descargar Mi amigo el dragón (2016) Full HD 1080p Latino. Durante años el Sr. Meacham, un viejo tallador...

    Director: Joe Nolan

    Género: Aventura

    Actores: William J. Rawbone

  • El discurso del Rey (2010) 1080p Latino

    El discurso del Rey (2010) 1080p Latino

    2010
    El discurso del Rey (2010) 1080p Latino

    1h 58m 2010

    Descargar El discurso del Rey (2010) 1080p Latino. El duque de York se convirtió en rey de Gran Bretaña...

    Director: Tom Hooper

    Género: Drama

    Actores: Tony Earnshaw

descargar Hasta el último hombre (2016) Full HD 1080p Latino Full 1080p 1080p gratis, Hasta el último hombre (2016) Full HD 1080p Latino Full 1080p mega 1 link, Hasta el último hombre (2016) Full HD 1080p Latino Full 1080p pelicula completa, descargar Hasta el último hombre (2016) Full HD 1080p Latino Full 1080p gratis en mega.

Hasta el último hombre (2016) Full HD 1080p Latino pelicula full hd, Hasta el último hombre (2016) Full HD 1080p Latino mega latino, Hasta el último hombre (2016) Full HD 1080p Latino 4k latino, Hasta el último hombre (2016) Full HD 1080p Latino pelicula completa, Hasta el último hombre (2016) Full HD 1080p Latino descargar gratis, descargar Hasta el último hombre (2016) Full HD 1080p Latino pelicula latino, Hasta el último hombre (2016) Full HD 1080p Latino 1 link mega, Hasta el último hombre (2016) Full HD 1080p Latino 1 link google drive, Hasta el último hombre (2016) Full HD 1080p Latino hd 1080p latino.
Comentarios 29
  • SamuelCG - 05 agosto, 2017

    El enlace esta caido

    • dpelis - 05 agosto, 2017

      reparado

  • Daniel Lopez - 08 mayo, 2017

    No puedo descargar la parte 5 solo eso aparece en el enlace para el link esta incompleto

    • dpelis - 08 mayo, 2017

      reparado estimado. Saludos

  • nt - 23 abril, 2017

    buenas. el link parte 5 de uptobox no lo puedo bajar, con las otras partes del mismo servidor no tuve problema. gracias.

  • ricardo - 11 marzo, 2017

    Hola! el audio español latino es 5.1? por que no lo especificaste, gracias.

    • dpelis - 11 marzo, 2017

      correcto, del bluray

  • Cesar - 07 marzo, 2017

    para cuando los link caidos por favor subanlooooooooooooooooooooooooooo
    ya estan desde el mes pasado

    • dpelis - 07 marzo, 2017

      link resubidos

  • Patricio Miranda - 27 febrero, 2017

    como se descarga?

  • Luka - 27 febrero, 2017

    Hola. los link de mega esta muertos.

    • dpelis - 27 febrero, 2017

      hola. puede usar otro server. los resubire otro dia. Saudos

  • Sergio - 27 febrero, 2017

    los enlaces de descargar están caidos

    • dpelis - 27 febrero, 2017

      hhola estimado los resubire en el orden que llegan , en los paste se reportan y voy reparando en orden que se van elimiando

      Saludos

  • Rommell - 17 febrero, 2017

    Esta es de mejor calidad que el otro de codec h.265?

  • Ivan - 15 febrero, 2017

    hola, no sale la contraseña!! podes especificarme cual es????

    • dpelis - 15 febrero, 2017

      hola es esta,
      dpeliculashdmega.org

      saludos

  • matias - 13 febrero, 2017

    hola como estas porque me tira este error al descomprimir ? saludos PELICULAS\H4ACKRID63\H4ACKRID63.part6.rar: Error en la suma de control del fichero codificado Hacksaw Ridge 2016 1080p Latino.mkv. Fichero dañado o contraseña incorrecta.

    • adrian - 15 febrero, 2017

      la contraseña esta arriba es la primera no la segunda

      • Tiin - 19 febrero, 2017

        la baje por mega y aun asi poniendo la primer contraseña me da error en la parte 6

        • dpelis - 19 febrero, 2017

          la descargo desde el navegador oh con gestor descarga?

          • Tiin - 20 febrero, 2017

            Todo bien, fue un error mio, mil disculpas. Gracias por la pelicula

  • Ruddy - 13 febrero, 2017

    Ahora si gracia por poner la caratula como estaban en la antigua página por color 🙂

  • jose - 12 febrero, 2017

    tan poco pesan las caratulas gris?

    • dpelis - 12 febrero, 2017

      eso lo hace el programa amigo. nosotros solo colocamos la configuracion, a veces quedan pesadas y otras no. saludos

      • es secreto - 12 febrero, 2017

        y por que la version de papelillio pesa mas estando en placebo?

        • dpelis - 12 febrero, 2017

          no esta en placebo, no subiremos placebo, saludos